+ ShareSpark.net »  :::: Hollywood Zone » Hollywood Movies (Original Rips)
|- American Made 2017 720p BluRay x264 AAC [Hindi PGS] + Esub ShareSpark [1000MB] ıllıPSYCHOıllı


American Made 2017 720p BluRay x264 AAC [Hindi PGS] + Esub ShareSpark [1000MB] ıllıPSYCHOıllı

0 Members and 1 Guest are viewing this topic.

December 06, 2017, 05:54:16 AM
  • Elite Moderator
  • Legend Member
  • ****
  • Topic Author
  • Thank You: 1996
  • Reputation: 286
  • Activity:
    75.4%
  • Country: in
  • Posts: 3704
  • Topics: 2845
  • Join Date: Sep 2016
  • (: EnJOy D LiFe :)
American Made 2017 720p BluRay x264 AAC [Hindi PGS] + Esub ShareSpark



 :info:

General
Format : Matroska
File size : 1 000 MiB
Duration : 1 h 54 min
Overall bit rate : 1 216 kb/s
Movie name : American Made 2017 720p BluRay x264 AAC [Hindi PGS] + Esub ShareSpark

Video
ID : 1
Format : AVC
Format/Info : Advanced Video Codec
Format profile : [email protected]
Width : 1 280 pixels
Height : 692 pixels
Display aspect ratio : 1.85:1
Frame rate mode : Constant
Frame rate : 23.976 (24000/1001) FPS 
Title : American Made 2017 720p BluRay x264 AAC [Hindi PGS] ShareSpark
Language : English
Default : Yes
Forced : Yes

Audio
ID : 2
Format : AAC
Format profile : LC
Bit rate : 96.0 kb/s
Channel(s) : 2 channels
Channel positions : Front: L R
Sampling rate : 48.0 kHz
Title : ShareSpark.net
Language : English
Default : Yes
Forced : No

Text #1
ID : 3
Format : VobSub
Codec ID : S_VOBSUB
Codec ID/Info : Picture based subtitle format used on DVDs
Duration : 1 h 53 min
Bit rate : 1 984 b/s
Count of elements : 1507
Stream size : 1.61 MiB (0%)
Title : HinDi PGS ıllıPSYCHOıllı
Language : Hindi
Default : Yes
Forced : Yes

Text #2
ID : 4
Format : UTF-8
Codec ID : S_TEXT/UTF8
Codec ID/Info : UTF-8 Plain Text
Duration : 1 h 45 min
Bit rate : 68 b/s
Count of elements : 1766
Stream size : 52.9 KiB (0%)
Title : English ıllıPSYCHOıllı
Language : English
Default : No
Forced : No

Source : Hon3y & DEFLATE (Thanks)


 :ss:








 :download:


GD Link :


GD Link (.zip) :






Share this topic on FacebookShare this topic on GoogleShare this topic on MySpaceShare this topic on TwitterShare this topic on Yahoo



* BUSY *

Thanks given by:


December 06, 2017, 01:51:06 PM
Reply #1
  • Semi Newbie
  • **
  • Thank You: 0
  • Reputation: 0
  • Activity:
    0%
  • Posts: 44
  • Topics: 0
  • Join Date: Feb 2012
  • ShareSpark Member

December 06, 2017, 02:26:46 PM
Reply #2
  • Conqueror
  • Royal Member
  • *****
  • Thank You: 413
  • Reputation: 163
  • Activity:
    100%
  • Country: in
  • Posts: 914
  • Topics: 425
  • Join Date: Oct 2015
  • Hit ThanX Button 🔳 N Repute Button 🔳
Hit Thnx Button 🔳 N + Repute Button 🔳 Always Appreciate UploadeR 🤗 GiVe Respect GeT Respect :yu:

Tags:
 

Related Topics

  Subject / Started by Replies Last post
2 Replies
335 Views
Last post December 05, 2017, 11:42:08 PM
by ~~Ank!t~~
0 Replies
243 Views
Last post December 05, 2017, 03:59:25 PM
by PSYCHO
0 Replies
205 Views
Last post December 05, 2017, 10:20:51 PM
by DjiSamSoe
0 Replies
541 Views
Last post December 05, 2017, 10:27:14 PM
by UnikAaYush
2 Replies
439 Views
Last post December 07, 2017, 12:53:12 PM
by Darkrie



Back to top