+ ShareSpark.net »  :::: Dubbed Zone (Dubbed English in Hindi) » TV Shows (Dubbed in Hindi)
|- Stranger Things S01 Complete 720p WEBRip [Hindi + English] DD5.1 - MSUBS - Ranvijay - 7.2 GB


Mastercard 10% Off

Stranger Things S01 Complete 720p WEBRip [Hindi + English] DD5.1 - MSUBS - Ranvijay - 7.2 GB

0 Members and 1 Guest are viewing this topic.

September 25, 2017, 02:36:05 PM
  • Global Moderator
  • Legend Member
  • *****
  • Topic Author
  • Thank You: 11255
  • Reputation: 2257
  • Activity:
    100%
  • Country: in
  • Posts: 5483
  • Topics: 4527
  • Join Date: Jan 2014
  • ıllıllı ѕмoĸιng ιѕ good ғor нealтн ıllıllı :)



Stranger Things S01 Complete 720p WEBRip [Hindi + English] DD5.1 - MSUBS - Ranvijay

Quote
Format                                   : Matroska
Format version                           : Version 4 / Version 2
File size                                : 941 MiB
Duration                                 : 48 min 22 s
Overall bit rate mode                    : Variable
Overall bit rate                         : 2 720 kb/s

Video
ID                                       : 1
Format                                   : AVC
Format/Info                              : Advanced Video Codec
Format profile                           : [email protected]
Format settings, CABAC                   : Yes
Format settings, RefFrames               : 8 frames
Codec ID                                 : V_MPEG4/ISO/AVC
Duration                                 : 47 min 31 s
Bit rate mode                            : Variable
Bit rate                                 : 2 118 kb/s
Maximum bit rate                         : 62.5 Mb/s
Width                                    : 1 280 pixels
Height                                   : 692 pixels
Display aspect ratio                     : 1.85:1
Frame rate mode                          : Constant
Frame rate                               : 23.976 (24000/1001) FPS
Color space                              : YUV
Chroma subsampling                       : 4:2:0
Bit depth                                : 8 bits
Scan type                                : Progressive
Bits/(Pixel*Frame)                       : 0.100
Stream size                              : 719 MiB (76%)
Default                                  : Yes
Forced                                   : No

Audio #1
ID                                       : 6
Format                                   : E-AC-3
Format/Info                              : Enhanced Audio Coding 3
Format settings, Endianness              : Big
Codec ID                                 : A_EAC3
Duration                                 : 48 min 22 s
Bit rate mode                            : Constant
Bit rate                                 : 192 kb/s
Channel(s)                               : 6 channels
Channel positions                        : Front: L C R, Side: L R, LFE
Sampling rate                            : 48.0 kHz
Frame rate                               : 187.500 FPS (256 SPF)
Compression mode                         : Lossy
Stream size                              : 66.4 MiB (7%)
Language                                 : Hindi
Service kind                             : Complete Main
Default                                  : Yes
Forced                                   : No

Audio #2
ID                                       : 7
Format                                   : AC-3
Format/Info                              : Audio Coding 3
Format settings, Endianness              : Big
Codec ID                                 : A_AC3
Duration                                 : 48 min 16 s
Bit rate mode                            : Constant
Bit rate                                 : 448 kb/s
Channel(s)                               : 6 channels
Channel positions                        : Front: L C R, Side: L R, LFE
Sampling rate                            : 48.0 kHz
Frame rate                               : 31.250 FPS (1536 SPF)
Bit depth                                : 16 bits
Compression mode                         : Lossy
Stream size                              : 155 MiB (16%)
Language                                 : English
Service kind                             : Complete Main
Default                                  : No
Forced                                   : No

Text #1
ID                                       : 2
Format                                   : UTF-8
Codec ID                                 : S_TEXT/UTF8
Codec ID/Info                            : UTF-8 Plain Text
Duration                                 : 44 min 10 s
Bit rate                                 : 64 b/s
Count of elements                        : 656
Stream size                              : 20.9 KiB (0%)
Language                                 : English
Default                                  : No
Forced                                   : No

Text #2
ID                                       : 3
Format                                   : UTF-8
Codec ID                                 : S_TEXT/UTF8
Codec ID/Info                            : UTF-8 Plain Text
Duration                                 : 47 min 5 s
Bit rate                                 : 54 b/s
Count of elements                        : 620
Stream size                              : 18.7 KiB (0%)
Language                                 : French
Default                                  : No
Forced                                   : No

Text #3
ID                                       : 4
Format                                   : UTF-8
Codec ID                                 : S_TEXT/UTF8
Codec ID/Info                            : UTF-8 Plain Text
Duration                                 : 45 min 45 s
Bit rate                                 : 57 b/s
Count of elements                        : 587
Stream size                              : 19.4 KiB (0%)
Language                                 : German
Default                                  : No
Forced                                   : No

Text #4
ID                                       : 5
Format                                   : UTF-8
Codec ID                                 : S_TEXT/UTF8
Codec ID/Info                            : UTF-8 Plain Text
Duration                                 : 45 min 45 s
Bit rate                                 : 57 b/s
Count of elements                        : 627
Stream size                              : 19.3 KiB (0%)
Language                                 : Italian
Default                                  : No
Forced                                   : No























:download:

Quote































































File Leeched & Uploaded From




Don't walk as you are king, walk as you don't care who the king is....!!
Never argue with an idiot. They drag you down to their level and then beat you with experience?

Share this topic on FacebookShare this topic on GoogleShare this topic on MySpaceShare this topic on TwitterShare this topic on Yahoo

« Last Edit: September 25, 2017, 02:37:31 PM by Rάήνίјάч1234 »



Don't walk as you are king, walk as you don't care who the king is....!!

Thanks given by:


December 22, 2017, 09:40:48 PM
Reply #1
  • Devoted Member
  • **
  • Thank You: 0
  • Reputation: 5
  • Activity:
    0%
  • Country: in
  • Posts: 115
  • Topics: 0
  • Join Date: Dec 2016
  • ShareSpark Member

 

Related Topics





Back to top