+ ShareSpark.net »  :::: Bollywood Zone » Bollywood Movies (Original Rips)
|-  Vicky Donor (2012) Hindi 720p Blu-Ray x264 DTS { TaRa } [1.65GB]


Electroncs Sale

Vicky Donor (2012) Hindi 720p Blu-Ray x264 DTS { TaRa } [1.65GB]

0 Members and 1 Guest are viewing this topic.

August 28, 2017, 02:36:03 PM
  • Team SSX
  • Royal Member
  • ***
  • Topic Author
  • Thank You: 162
  • Reputation: 144
  • Activity:
    0.2%
  • Country: in
  • Posts: 925
  • Topics: 196
  • Join Date: Nov 2011
  • ShareSpark Member


Vicky Donor ( 2012 ) Hindi 720p Blu-Ray x264 DTS { TaRa }

 :plot:
Dr. Baldev, the owner of a fertility clinic and a sperm bank, is in search of a healthy sperm donor. His search ends when he meets Vicky, a handsome young Punjabi boy.

 :info:
General
Complete name               : Vicky Donor ( 2012 ) Hindi 720p Blu-Ray x264 DTS { TaRa }.mkv
Format                      : Matroska
Format version              : Version 4 / Version 2
File size                   : 1.65 GiB
Duration                    : 2 h 5 min
Overall bit rate            : 1 885 kb/s
===================================================================
Video
ID                          : 1
Format                      : AVC
Format/Info                 : Advanced Video Codec
Format profile              : [email protected]
Format settings, CABAC      : Yes
Format settings, ReFrames   : 4 frames
Codec ID                    : V_MPEG4/ISO/AVC
Duration                    : 2 h 5 min
Bit rate                    : 857 kb/s
Width                       : 1 280 pixels
Height                      : 544 pixels
Display aspect ratio        : 2.35:1
Frame rate mode             : Constant
Frame rate                  : 24.000 FPS
Color space                 : YUV
Chroma subsampling          : 4:2:0
Bit depth                   : 8 bits
Scan type                   : Progressive
Bits/(Pixel*Frame)          : 0.051
Stream size                 : 769 MiB (45%)
Title                       : .....::::: TaRa :::::.....
Language                    : Hindi
Default                     : Yes
Forced                      : No
===================================================================
Audio
ID                          : 2
Format                      : DTS
Format/Info                 : Digital Theater Systems
Mode                        : 16
Format settings, Endianness : Big
Codec ID                    : A_DTS
Duration                    : 2 h 5 min
Bit rate mode               : Constant
Bit rate                    : 1 025 kb/s
Channel(s)                  : 6 channels
Channel positions           : Front: L C R, Side: L R, LFE
Sampling rate               : 44.1 kHz
Frame rate                  : 86.133 FPS (512 spf)
Bit depth                   : 16 bits
Compression mode            : Lossy
Stream size                 : 920 MiB (54%)
Title                       : .....::::: TaRa :::::.....
Language                    : Hindi
Default                     : Yes
Forced                      : No
===================================================================

 :ss:






 :download:








Share this topic on FacebookShare this topic on GoogleShare this topic on MySpaceShare this topic on TwitterShare this topic on Yahoo



:bounce:
  :bounce:

Thanks given by:


August 28, 2017, 03:37:18 PM
Reply #1
  • Elite Forces
  • ****
  • Thank You: 240
  • Reputation: 102
  • Activity:
    9%
  • Country: sa
  • Posts: 1165
  • Topics: 126
  • Join Date: Jan 2017
  • ShareSpark Member

Tags: vicky donor 2012 hindi tara 720p BLURAY 
 

Related Topics

  Subject / Started by Replies Last post
5 Replies
1470 Views
Last post November 06, 2013, 12:14:34 AM
by ıllıllı αнʍє иυя ıllıllı
0 Replies
777 Views
Last post September 21, 2012, 09:33:54 AM
by Ⓚ@яⒶи Ⓜმმῆ
4 Replies
958 Views
Last post November 05, 2013, 01:11:58 AM
by Maverick.Dude™
6 Replies
1333 Views
Last post July 11, 2013, 10:36:42 PM
by harman786
0 Replies
668 Views
Last post April 02, 2015, 01:07:59 AM
by sun00922




Back to top