+ ShareSpark.net »  :::: Hollywood Zone » Hollywood Movies (Original Rips) » High Resolution Movies
|- [18+] Kamasutra.2008.1080p.BluRay.x264.DTS-FGT


100% Recharge Offer
  • [18+] Kamasutra.2008.1080p.BluRay.x264.DTS-FGT 5 1
Currently:  

[18+] Kamasutra.2008.1080p.BluRay.x264.DTS-FGT

0 Members and 1 Guest are viewing this topic.

August 26, 2017, 02:15:09 PM
  • Hero Member
  • ***
  • Topic Author
  • Thank You: 46
  • Reputation: 11
  • Activity:
    4%
  • Country: pk
  • Posts: 386
  • Topics: 107
  • Join Date: Sep 2014
  • ShareSpark Member


Media Information:

Code: [Select]
Video
ID                                       : 1
Format                                   : AVC
Format/Info                              : Advanced Video Codec
Format profile                           : [email protected]
Format settings, CABAC                   : Yes
Format settings, ReFrames                : 4 frames
Codec ID                                 : V_MPEG4/ISO/AVC
Duration                                 : 56mn 16s
Bit rate                                 : 10.8 Mbps
Width                                    : 1 920 pixels
Height                                   : 1 080 pixels
Display aspect ratio                     : 16:9
Frame rate mode                          : Constant
Frame rate                               : 24.000 fps
Color space                              : YUV
Chroma subsampling                       : 4:2:0
Bit depth                                : 8 bits
Scan type                                : Progressive
Bits/(Pixel*Frame)                       : 0.217
Stream size                              : 4.14 GiB (86%)
Writing library                          : x264 core 67 r1173M f6d3166
Encoding settings                        : cabac=1 / ref=4 / deblock=1:-3:-4 / analyse=0x3:0x113 / me=tesa / subme=9 / psy_rd=0.8:0.0 / mixed_ref=1 / me_range=24 / chroma_me=1 / trellis=2 / 8x8dct=1 / cqm=0 / deadzone=21,11 / chroma_qp_offset=-2 / threads=12 / nr=0 / decimate=0 / mbaff=0 / bframes=4 / b_pyramid=1 / b_adapt=2 / b_bias=0 / direct=3 / wpredb=1 / keyint=250 / keyint_min=25 / scenecut=40 / rc=2pass / bitrate=10781 / ratetol=1.0 / qcomp=0.70 / qpmin=10 / qpmax=51 / qpstep=4 / cplxblur=20.0 / qblur=0.5 / vbv_maxrate=38000 / vbv_bufsize=38000 / ip_ratio=1.30 / pb_ratio=1.20 / aq=1:1.00
Language                                 : English
Default                                  : Yes
Forced                                   : No

Audio #1
ID                                       : 2
Format                                   : DTS
Format/Info                              : Digital Theater Systems
Mode                                     : 16
Format settings, Endianness              : Big
Codec ID                                 : A_DTS
Duration                                 : 56mn 16s
Bit rate mode                            : Constant
Bit rate                                 : 768 Kbps
Channel(s)                               : 6 channels
Channel positions                        : Front: L C R, Side: L R, LFE
Sampling rate                            : 48.0 KHz
Bit depth                                : 24 bits
Compression mode                         : Lossy
Stream size                              : 309 MiB (6%)
Language                                 : English
Default                                  : Yes
Forced                                   : No

Audio #2
ID                                       : 3
Format                                   : DTS
Format/Info                              : Digital Theater Systems
Mode                                     : 16
Format settings, Endianness              : Big
Codec ID                                 : A_DTS
Duration                                 : 56mn 16s
Bit rate mode                            : Constant
Bit rate                                 : 768 Kbps
Channel(s)                               : 6 channels
Channel positions                        : Front: L C R, Side: L R, LFE
Sampling rate                            : 48.0 KHz
Bit depth                                : 24 bits
Compression mode                         : Lossy
Stream size                              : 309 MiB (6%)
Title                                    : Music only
Language                                 : English
Default                                  : No
Forced                                   : No

Menu
00:00:00.000                             : :00:00:00.000
00:13:00.000                             : :00:13:00.000
00:16:22.625                             : :00:16:22.625
00:18:41.333                             : :00:18:41.333
00:22:42.792                             : :00:22:42.792
00:23:51.792                             : :00:23:51.792
00:26:23.792                             : :00:26:23.792
00:30:53.417                             : :00:30:53.417
00:34:36.917                             : :00:34:36.917
00:36:00.708                             : :00:36:00.708
00:41:04.958                             : :00:41:04.958
00:45:08.542                             : :00:45:08.542
00:47:24.083                             : :00:47:24.083
00:50:59.750                             : :00:50:59.750
00:54:03.417                             : :00:54:03.417


Download:
Quote


Share this topic on FacebookShare this topic on GoogleShare this topic on MySpaceShare this topic on TwitterShare this topic on Yahoo

« Last Edit: August 26, 2017, 04:27:28 PM by dc7800 »



 

Related Topics

  Subject / Started by Replies Last post
5 Replies
2321 Views
Last post September 05, 2018, 09:00:18 PM
by noddy
1 Replies
1191 Views
Last post November 26, 2014, 09:44:09 PM
by ★·.·★ Vίјάy ★·.·★
0 Replies
597 Views
Last post June 25, 2015, 09:09:26 PM
by ♫♪ RΩCK BΩY ♥♫
4 Replies
3775 Views
Last post October 01, 2018, 08:01:00 PM
by sonuji
0 Replies
1376 Views
Last post July 18, 2015, 02:51:43 PM
by OnleyMe




Back to top