+ ShareSpark.net »  :::: Dubbed Zone (Dubbed English in Hindi) » English Movies Dubbed in Hindi
|-  The Adventures of Tintin (2011) 1080p Bluray Dual Audio [Hindi-English] x264 Esubs RDLinks [2GB]

Pantry 600 Back

The Adventures of Tintin (2011) 1080p Bluray Dual Audio [Hindi-English] x264 Esubs RDLinks [2GB]

0 Members and 1 Guest are viewing this topic.

August 20, 2017, 05:58:11 PM
  • Team SSX
  • Royal Member
  • ***
  • Topic Author
  • Thank You: 160
  • Reputation: 144
  • Activity:
    0.4%
  • Country: in
  • Posts: 925
  • Topics: 196
  • Join Date: Nov 2011
  • ShareSpark Member


The Adventures of Tintin (2011) 1080p Bluray Dual Audio [Hindi - English] x264 DD5 1 Esubs RDLinks

 :plot:
Tintin and his dog Snowy unwittingly embark on an adventure with Captain Haddock to find an ancient treasure. An evil Sakharine pursues them, while detectives Thomson and Thompson chase him.

 :info:
General
Unique ID : 246054564060805490597577817187485687908 (0xB91C62A23865463DBC4E2A6FCCA72064)
Complete name : files/The_Adventures_of_Tintin_(2011)_1080p_Bluray_Dual_Audio_[Hindi_-_English]_x264_DD5.1_Esubs_RDLinks.mkv
Format : Matroska
Format version : Version 4 / Version 2
File size : 2.00 GiB
Duration : 1 h 46 min
Overall bit rate : 2 681 kb/s
Encoded date : UTC 2016-04-09 10:05:20
Writing application : mkvmerge v7.2.0 ('On Every Street') 64bit built on Sep 13 2014 15:52:10
Writing library : libebml v1.3.0 + libmatroska v1.4.1

Video
ID : 1
Format : AVC
Format/Info : Advanced Video Codec
Format profile : [email protected]
Format settings, CABAC : Yes
Format settings, RefFrames : 3 frames
Codec ID : V_MPEG4/ISO/AVC
Duration : 1 h 46 min
Bit rate : 2 199 kb/s
Width : 1 920 pixels
Height : 816 pixels
Display aspect ratio : 2.35:1
Frame rate mode : Constant
Frame rate : 23.976 (24000/1001) FPS
Color space : YUV
Chroma subsampling : 4:2:0
Bit depth : 8 bits
Scan type : Progressive
Bits/(Pixel*Frame) : 0.059
Stream size : 1.64 GiB (82%)
Writing library : x264 core 142 r2431 ac76440
Encoding settings : cabac=1 / ref=3 / deblock=1:-2:-1 / analyse=0x3:0x113 / me=hex / subme=9 / psy=1 / psy_rd=1.00:0.15 / mixed_ref=1 / me_range=16 / chroma_me=1 / trellis=2 / 8x8dct=1 / cqm=1 / deadzone=21,11 / fast_pskip=1 / chroma_qp_offset=-3 / threads=12 / lookahead_threads=1 / sliced_threads=0 / nr=0 / decimate=1 / interlaced=0 / bluray_compat=0 / constrained_intra=0 / bframes=3 / b_pyramid=1 / b_adapt=2 / b_bias=0 / direct=2 / weightb=1 / open_gop=0 / weightp=2 / keyint=240 / keyint_min=23 / scenecut=48 / intra_refresh=0 / rc_lookahead=50 / rc=2pass / mbtree=1 / bitrate=2199 / ratetol=1.0 / qcomp=0.60 / qpmin=4 / qpmax=69 / qpstep=4 / cplxblur=20.0 / qblur=0.5 / vbv_maxrate=24000 / vbv_bufsize=24000 / nal_hrd=none / filler=0 / ip_ratio=1.40 / aq=1:1.00
Default : Yes
Forced : No
Color range : Limited
Color primaries : BT.709
Transfer characteristics : BT.709
Matrix coefficients : BT.709

Audio #1
ID : 2
Format : AAC
Format/Info : Advanced Audio Codec
Format profile : LC
Codec ID : A_AAC
Duration : 1 h 46 min
Bit rate : 256 kb/s
Channel(s) : 6 channels
Channel positions : Front: L C R, Side: L R, LFE
Sampling rate : 48.0 kHz
Frame rate : 46.875 FPS (1024 SPF)
Compression mode : Lossy
Delay relative to video : 9 ms
Stream size : 195 MiB (10%)
Language : Hindi
Default : Yes
Forced : Yes

Audio #2
ID : 3
Format : AAC
Format/Info : Advanced Audio Codec
Format profile : HE-AAC / LC
Codec ID : A_AAC
Duration : 1 h 46 min
Bit rate : 224 kb/s
Channel(s) : 6 channels
Channel positions : Front: L C R, Side: L R, LFE
Sampling rate : 48.0 kHz / 24.0 kHz
Frame rate : 23.438 FPS (1024 SPF)
Compression mode : Lossy
Delay relative to video : 31 ms
Stream size : 171 MiB (8%)
Language : English
Default : No
Forced : No

Text
ID : 4
Format : UTF-8
Codec ID : S_TEXT/UTF8
Codec ID/Info : UTF-8 Plain Text
Duration : 1 h 36 min
Bit rate : 53 b/s
Count of elements : 1179
Stream size : 37.8 KiB (0%)
Language : English
Default : Yes
Forced : No

 :ss:






 :download:






Share this topic on FacebookShare this topic on GoogleShare this topic on MySpaceShare this topic on TwitterShare this topic on Yahoo



:bounce:
  :bounce:

 

Related Topics




Back to top