+ ShareSpark.net »  :::: Bollywood Zone » Regional Movies » Bengali Movies
|- One 2017 [Bengali] 720p Untouched WEB-DL x264 AAC Esub- Hon3y


BMS 50% Off

One 2017 [Bengali] 720p Untouched WEB-DL x264 AAC Esub- Hon3y

0 Members and 1 Guest are viewing this topic.

August 14, 2017, 04:24:05 PM
  • Feeling Special
  • Conqueror
  • Elite Member
  • *****
  • Topic Author
  • Thank You: 362
  • Reputation: 55
  • Activity:
    26.4%
  • Country: in
  • Posts: 449
  • Topics: 309
  • Join Date: Oct 2016
  • Born To Live
:title:

One 2017 [Bengali] 720p Untouched WEB-DL x264 AAC Esub- Hon3y



:info:

IMDB :




Director: Birsa Dasgupta
Writer: Abhimanyu Mukherjee

Cast

Stars: Prasenjit Chatterjee, Yash Dasgupta, Nusrat Jahan

PLOT:

Story of an honest police officer Ronojoy Bose (Yash Dasgupta) in his crusade to cleanse society of corruption, and thus begins the cat & mouse chase and mind game between Ronojoy and the corrupt Award winning Scientist - Aditya Sen (Prosenjit Chatterji) How they play the game of upmanship. Will good triumph over evil in the end?



Format                      : Matroska
Format version              : Version 4 / Version 2
File size                   : 2.05 GiB
Duration                    : 2 h 21 min
Overall bit rate            : 2 076 kb/s
Movie name                  : One 2017 - [email protected] @ Hon3y


Video
ID                          : 1
Format                      : AVC
Format/Info                 : Advanced Video Codec
Format profile              : [email protected]
Format settings, CABAC      : Yes
Format settings, ReFrames   : 1 frame
Format settings, GOP        : M=1, N=25
Codec ID                    : V_MPEG4/ISO/AVC
Duration                    : 2 h 21 min
Bit rate mode               : Constant
Bit rate                    : 2 000 kb/s
Width                       : 1 280 pixels
Height                      : 720 pixels
Display aspect ratio        : 16:9
Frame rate mode             : Constant
Frame rate                  : 25.000 FPS
Color space                 : YUV
Chroma subsampling          : 4:2:0
Bit depth                   : 8 bits
Scan type                   : Progressive
Bits/(Pixel*Frame)          : 0.087
Stream size                 : 1.93 GiB (94%)
Default                     : Yes
Forced                      : No

Audio
ID                          : 2
Format                      : AAC
Format/Info                 : Advanced Audio Codec
Format profile              : LC
Codec ID                    : A_AAC
Duration                    : 2 h 21 min
Bit rate                    : 125 kb/s
Channel(s)                  : 2 channels
Channel positions           : Front: L R
Sampling rate               : 48.0 kHz
Frame rate                  : 46.875 FPS (1024 spf)
Compression mode            : Lossy
Stream size                 : 127 MiB (6%)
Language                    : Bengali
Default                     : Yes
Forced                      : No

Text
ID                          : 3
Format                      : UTF-8
Codec ID                    : S_TEXT/UTF8
Codec ID/Info               : UTF-8 Plain Text
Duration                    : 2 h 21 min
Bit rate                    : 64 b/s
Count of elements           : 1942
Stream size                 : 67.2 KiB (0%)
Language                    : English
Default                     : Yes
Forced                      : No


:ss:






:download:





Share this topic on FacebookShare this topic on GoogleShare this topic on MySpaceShare this topic on TwitterShare this topic on Yahoo



Born To Live. So always Positive

Thanks given by:


Tags:
 

Related Topics

  Subject / Started by Replies Last post
1 Replies
845 Views
Last post May 10, 2017, 06:33:44 PM
by Vagabond
0 Replies
921 Views
Last post May 11, 2017, 08:54:36 AM
by Optimiser
1 Replies
859 Views
Last post September 05, 2017, 10:02:45 PM
by Vagabond
0 Replies
711 Views
Last post January 07, 2018, 07:01:14 PM
by UnikAaYush
3 Replies
1183 Views
Last post March 23, 2018, 12:02:03 AM
by Vagabond



Back to top