+ ShareSpark.net »  :::: Bollywood Zone » Bollywood Movies (Original Rips)
|- Fanaa 2006 Hindi 1080p BluRay x264 AAC 5.1 Esub -Hon3y [2.8GB]


Amazon Fashion

Fanaa 2006 Hindi 1080p BluRay x264 AAC 5.1 Esub -Hon3y [2.8GB]

0 Members and 1 Guest are viewing this topic.

August 10, 2017, 11:29:23 AM
  • Team SSX
  • Royal Member
  • ***
  • Topic Author
  • Thank You: 162
  • Reputation: 144
  • Activity:
    0.2%
  • Country: in
  • Posts: 925
  • Topics: 196
  • Join Date: Nov 2011
  • ShareSpark Member


Fanaa 2006 Hindi 1080p BluRay x264 AAC 5.1 Esub -Hon3y

 :plot:
Against the advice of her friends, Zooni, a blind Kashmiri girl, falls in love with tourist guide Rehan. He helps her get her eyesight but she loses him in a terror attack before she can see him.

 :info:

Source: BD50 @ DRS. Many Thanks <3


Format : Matroska
Format version : Version 4 / Version 2
File size : 2.82 GiB
Duration : 2 h 48 min
Overall bit rate : 2 393 kb/s
Movie name : [email protected] @ Hon3y


Video
ID : 1
Format : AVC
Format/Info : Advanced Video Codec
Format profile : [email protected]
Format settings, CABAC : Yes
Format settings, ReFrames : 5 frames
Codec ID : V_MPEG4/ISO/AVC
Duration : 2 h 48 min
Bit rate : 2 200 kb/s
Width : 1 920 pixels
Height : 816 pixels
Display aspect ratio : 2.35:1
Frame rate mode : Constant
Frame rate : 24.000 FPS


Audio
ID : 2
Format : AAC
Format/Info : Advanced Audio Codec
Format profile : LC
Codec ID : A_AAC
Duration : 2 h 48 min
Bit rate : 192 kb/s
Channel(s) : 6 channels
Channel positions : Front: L C R, Side: L R, LFE
Sampling rate : 48.0 kHz
Frame rate : 46.875 FPS (1024 spf)
Compression mode : Lossy
Delay relative to video : 9 ms
Stream size : 231 MiB (8%)
Language : Hindi
Default : Yes
Forced : No

Text
ID : 3
Format : UTF-8
Codec ID : S_TEXT/UTF8
Codec ID/Info : UTF-8 Plain Text
Duration : 2 h 46 min
Bit rate : 52 b/s
Count of elements : 1774
Stream size : 64.0 KiB (0%)
Language : English
Default : Yes
Forced : No

Menu
00:00:00.000 : en:Chapter 01
00:02:39.666 : en:Chapter 02
00:05:55.125 : en:Chapter 03
00:09:56.625 : en:Chapter 04
00:16:05.041 : en:Chapter 05
00:20:40.958 : en:Chapter 06
00:27:59.375 : en:Chapter 07
00:37:31.875 : en:Chapter 08
00:42:49.458 : en:Chapter 09
00:54:31.791 : en:Chapter 10
01:00:06.791 : en:Chapter 11
01:05:53.708 : en:Chapter 12
01:18:25.166 : en:Chapter 13
01:25:49.416 : en:Chapter 14
01:32:24.041 : en:Chapter 15
01:40:01.916 : en:Chapter 16
01:47:06.583 : en:Chapter 17
01:56:41.083 : en:Chapter 18
02:00:22.958 : en:Chapter 19
02:15:29.000 : en:Chapter 20
02:20:13.416 : en:Chapter 21
02:29:44.291 : en:Chapter 22
02:46:05.541 : en:Chapter 23
02:48:48.958 : en:Chapter 24

 :ss:






 :download:






Share this topic on FacebookShare this topic on GoogleShare this topic on MySpaceShare this topic on TwitterShare this topic on Yahoo



:bounce:
  :bounce:

Tags: fanaa 2006 Hon3y 1080p BLURAY 
 

Related Topics

  Subject / Started by Replies Last post
0 Replies
741 Views
Last post February 17, 2015, 09:43:19 AM
by lovely1629
0 Replies
825 Views
Last post June 14, 2015, 09:30:55 PM
by s¡lєит_αssαss¡и
0 Replies
666 Views
Last post August 08, 2017, 04:50:38 PM
by RoBi007
5 Replies
955 Views
Last post January 18, 2018, 07:38:59 AM
by shahdk
0 Replies
494 Views
Last post February 07, 2018, 06:51:00 PM
by Special26




Back to top