+ ShareSpark.net »  :::: Hollywood Zone » TV Shows
|- Game of Thrones S07E04 Leaked 360p AnoX [Download/Watch]


New Promotions of ShareSpark Member's (January 2018) New
Tag users in topic | Receive notifications when you are tagged

Game of Thrones S07E04 Leaked 360p AnoX [Download/Watch]

0 Members and 1 Guest are viewing this topic.

August 04, 2017, 04:28:39 PM
  • Semi Newbie
  • **
  • Topic Author
  • Thank You: 36
  • Reputation: 6
  • Activity:
    2%
  • Country: in
  • Posts: 42
  • Topics: 34
  • Join Date: Jun 2017
  • ShareSpark Member
GAME OF THRONES S07E04




General
Complete name                            : files/Winter_-_704-AnOX.mp4
Format                                   : MPEG-4
Format profile                           : Base Media / Version 2
Codec ID                                 : mp42 (isom)
File size                                : 291 MiB
Duration                                 : 52 min 6 s
Overall bit rate mode                    : Variable
Overall bit rate                         : 781 kb/s
Encoded date                             : UTC 2017-08-03 13:07:08
Tagged date                              : UTC 2017-08-03 13:07:08

Video
ID                                       : 1
Format                                   : AVC
Format/Info                              : Advanced Video Codec
Format profile                           : [email protected]
Format settings, CABAC                   : No
Format settings, ReFrames                : 4 frames
Format settings, GOP                     : M=1, N=15
Codec ID                                 : avc1
Codec ID/Info                            : Advanced Video Coding
Duration                                 : 52 min 6 s
Bit rate mode                            : Constant
Bit rate                                 : 650 kb/s
Width                                    : 640 pixels
Height                                   : 360 pixels
Display aspect ratio                     : 16:9
Frame rate mode                          : Constant
Frame rate                               : 25.000 FPS
Color space                              : YUV
Chroma subsampling                       : 4:2:0
Bit depth                                : 8 bits
Scan type                                : Progressive
Bits/(Pixel*Frame)                       : 0.113
Stream size                              : 243 MiB (84%)
Language                                 : English
Encoded date                             : UTC 2017-08-03 13:07:08
Tagged date                              : UTC 2017-08-03 13:07:08
Color range                              : Limited

Audio
ID                                       : 2
Format                                   : AAC
Format/Info                              : Advanced Audio Codec
Format profile                           : LC
Codec ID                                 : 40
Duration                                 : 52 min 6 s
Bit rate mode                            : Variable
Bit rate                                 : 125 kb/s
Maximum bit rate                         : 486 kb/s
Channel(s)                               : 2 channels
Channel positions                        : Front: L R
Sampling rate                            : 48.0 kHz
Frame rate                               : 46.875 FPS (1024 spf)
Compression mode                         : Lossy
Stream size                              : 46.8 MiB (16%)
Language                                 : English
Encoded date                             : UTC 2017-08-03 13:07:08
Tagged date                              : UTC 2017-08-03 13:07:08


DOWNLOAD LINKS





WATCH


AnoXdLeO

Share this topic on FacebookShare this topic on GoogleShare this topic on MySpaceShare this topic on TwitterShare this topic on Yahoo

« Last Edit: August 04, 2017, 04:30:10 PM by anoxdleo »


Thanks given by:


 

Related Topics

  Subject / Started by Replies Last post
0 Replies
457 Views
Last post July 17, 2017, 10:54:28 PM
by ★ iamPK ★
0 Replies
599 Views
Last post August 04, 2017, 07:10:06 PM
by ★ iamPK ★
0 Replies
386 Views
Last post August 07, 2017, 08:49:43 AM
by ~~Ank!t~~
1 Replies
569 Views
Last post August 09, 2017, 10:57:21 AM
by frizekup
1 Replies
643 Views
Last post August 25, 2017, 03:20:50 PM
by imcyberdon




Back to top