+ ShareSpark.net »  :::: Bollywood Zone » Regional Movies » Bengali Movies
|- Durga Sohay (2017) 1080p Untouched WEBHD AVC AAC ESub [DDR] BY Sagar Xclusive


First Recharge Offer 75% Off

Durga Sohay (2017) 1080p Untouched WEBHD AVC AAC ESub [DDR] BY Sagar Xclusive

0 Members and 1 Guest are viewing this topic.

July 17, 2017, 02:26:28 PM
  • Begginer
  • **
  • Topic Author
  • Thank You: 28
  • Reputation: 1
  • Activity:
    0%
  • Country: in
  • Posts: 50
  • Topics: 45
  • Join Date: May 2017
  • ShareSpark Member

~ Durga Sohay ~

** 1080p / WEBHD / AVC / AAC / ESub **



 :info:

Quote
General
Complete name                            :Durga Sohay (2017) 1080p Untouched WEBHD AVC AAC [DDR].mp4
Source:    DT
Format                                   : MPEG-4
Format profile                           : Base Media
Codec ID                                 : isom (isom/iso2/avc1/mp41)
File size                                : 4.11 GiB
Duration                                 : 1 h 35 min
Overall bit rate mode                    : Variable
Overall bit rate                         : 6 132 kb/s
Writing application                      : Lavf56.15.102

Video
ID                                       : 1
Format                                   : AVC
Format/Info                              : Advanced Video Codec
Format profile                           : [email protected]
Format settings, CABAC                   : Yes
Format settings, ReFrames                : 1 frame
Format settings, GOP                     : M=1, N=25
Codec ID                                 : avc1
Codec ID/Info                            : Advanced Video Coding
Duration                                 : 1 h 35 min
Bit rate mode                            : Constant
Bit rate                                 : 6 000 kb/s
Width                                    : 1 920 pixels
Height                                   : 1 080 pixels
Display aspect ratio                     : 16:9
Frame rate mode                          : Constant
Frame rate                               : 25.000 FPS
Color space                              : YUV
Chroma subsampling                       : 4:2:0
Bit depth                                : 8 bits
Scan type                                : Progressive
Bits/(Pixel*Frame)                       : 0.116
Stream size                              : 4.02 GiB (98%)

Audio
ID                                       : 2
Format                                   : AAC
Format/Info                              : Advanced Audio Codec
Format profile                           : LC
Codec ID                                 : 40
Duration                                 : 1 h 35 min
Bit rate mode                            : Variable
Bit rate                                 : 125 kb/s
Maximum bit rate                         : 129 kb/s
Channel(s)                               : 2 channels
Channel positions                        : Front: L R
Sampling rate                            : 48.0 kHz
Frame rate                               : 46.875 FPS (1024 spf)
Compression mode                         : Lossy
Stream size                              : 86.1 MiB (2%)
Default                                  : Yes
Alternate group                          : 1                                  : No

 :ss:








 :download:

Direct Link





1Gb Split Links

Uptobox
















Multiup Links















Share this topic on FacebookShare this topic on GoogleShare this topic on MySpaceShare this topic on TwitterShare this topic on Yahoo

« Last Edit: October 19, 2017, 08:39:52 PM by lavapolo »


Thanks given by:


July 17, 2017, 06:05:36 PM
Reply #1
  • Hot Member
  • ***
  • Thank You: 24
  • Reputation: 8
  • Activity:
    10.2%
  • Country: bd
  • Posts: 565
  • Topics: 12
  • Join Date: Jun 2017
  • ShareSpark Member

Tags:
 

Related Topics




Back to top