+ ShareSpark.net »  :::: Hollywood Zone » Hollywood Movies (Original Rips) » High Resolution Movies
|- Wonder.Woman.2017.1080p.KORSUB.HDRip.x264.AAC2.0-STUTTERSHIT [4.6GB]


10% SBI and 10% Discount

Wonder.Woman.2017.1080p.KORSUB.HDRip.x264.AAC2.0-STUTTERSHIT [4.6GB]

0 Members and 1 Guest are viewing this topic.

July 02, 2017, 05:00:13 AM
  • Team SSX
  • Royal Member
  • ***
  • Topic Author
  • Thank You: 162
  • Reputation: 144
  • Activity:
    0.2%
  • Country: in
  • Posts: 925
  • Topics: 196
  • Join Date: Nov 2011
  • ShareSpark Member


Wonder.Woman.2017.1080p.KORSUB.HDRip.x264.AAC2.0-STUTTERSHIT

 :plot:
Before she was Wonder Woman| she was Diana| princess of the Amazons| trained to be an unconquerable warrior. Raised on a sheltered island paradise| when a pilot crashes on their shores and tells of a massive conflict raging in the outside world| Diana leaves her home| convinced she can stop the threat. Fighting alongside man in a war to end all wars| Diana will discover her full powers and her true destiny.

 :cast:
Genres: Action , Adventure , Fantasy , Sci-Fi , War

Actors: Gal Gadot , Chris Pine , Robin Wright , Connie Nielsen , Danny Huston , David Thewlis , Saïd Taghmaoui , Ewen Bremner

Director: Patty Jenkins

 :info:
General
Complete name : files/Wonder.Woman.2017.1080p.KORSUB.HDRip.x264.AAC2.0-STUTTERSHIT.mp4
Format : MPEG-4
Format profile : Base Media
Codec ID : isom (isom/iso2/avc1/mp41)
File size : 4.63 GiB
Duration : 2 h 21 min
Overall bit rate : 4 698 kb/s
Movie name : Wonder.Woman.2017.1080p.KORSUB.HDRip.x264.AAC2.0-STUTTERSHIT
Encoded date : UTC 1904-01-01 00:00:00
Tagged date : UTC 1904-01-01 00:00:00
Writing application : Lavf57.19.100
Comment : Wonder.Woman.2017.1080p.KORSUB.HDRip.x264.AAC2.0-STUTTERSHIT

Video
ID : 1
Format : AVC
Format/Info : Advanced Video Codec
Format profile : [email protected]
Format settings, CABAC : Yes
Format settings, ReFrames : 4 frames
Codec ID : avc1
Codec ID/Info : Advanced Video Coding
Duration : 2 h 21 min
Bit rate : 4 500 kb/s
Width : 1 920 pixels
Height : 800 pixels
Display aspect ratio : 2.40:1
Frame rate mode : Constant
Frame rate : 23.976 (24000/1001) FPS
Color space : YUV
Chroma subsampling : 4:2:0
Bit depth : 8 bits
Scan type : Progressive
Bits/(Pixel*Frame) : 0.122
Stream size : 4.40 GiB (95%)
Title : Wonder.Woman.2017.1080p.KORSUB.HDRip.x264.AAC2.0-STUTTERSHIT
Writing library : x264 core 148 r2597M e86f3a1
Encoding settings : cabac=1 / ref=4 / deblock=1:0:0 / analyse=0x3:0x113 / me=umh / subme=8 / psy=1 / psy_rd=1.00:0.00 / mixed_ref=1 / me_range=16 / chroma_me=1 / trellis=1 / 8x8dct=1 / cqm=0 / deadzone=21,11 / fast_pskip=1 / chroma_qp_offset=-2 / threads=40 / lookahead_threads=6 / sliced_threads=0 / nr=0 / decimate=1 / interlaced=0 / bluray_compat=0 / constrained_intra=0 / bframes=3 / b_pyramid=2 / b_adapt=2 / b_bias=0 / direct=3 / weightb=1 / open_gop=0 / weightp=2 / keyint=250 / keyint_min=23 / scenecut=40 / intra_refresh=0 / rc_lookahead=50 / rc=abr / mbtree=1 / bitrate=4500 / ratetol=1.0 / qcomp=0.60 / qpmin=0 / qpmax=69 / qpstep=4 / ip_ratio=1.40 / aq=1:1.00
Encoded date : UTC 1904-01-01 00:00:00
Tagged date : UTC 1904-01-01 00:00:00

Audio
ID : 2
Format : AAC
Format/Info : Advanced Audio Codec
Format profile : LC
Codec ID : 40
Duration : 2 h 21 min
Bit rate mode : Constant
Bit rate : 224 kb/s
Channel(s) : 2 channels
Channel positions : Front: L R
Sampling rate : 48.0 kHz
Frame rate : 46.875 FPS (1024 spf)
Compression mode : Lossy
Stream size : 226 MiB (5%)
Title : Wonder.Woman.2017.1080p.KORSUB.HDRip.x264.AAC2.0-STUTTERSHIT
Default : Yes
Alternate group : 1
Encoded date : UTC 1904-01-01 00:00:00
Tagged date : UTC 1904-01-01 00:00:00


 :ss:






 :download:









Share this topic on FacebookShare this topic on GoogleShare this topic on MySpaceShare this topic on TwitterShare this topic on Yahoo



:bounce:
  :bounce:

Thanks given by:


July 07, 2017, 10:45:45 PM
Reply #1
  • Semi Newbie
  • **
  • Thank You: 0
  • Reputation: 0
  • Activity:
    0.4%
  • Posts: 31
  • Topics: 0
  • Join Date: Aug 2013
  • ShareSpark Member

July 07, 2017, 11:17:14 PM
Reply #2
  • Team SSX
  • Royal Member
  • ***
  • Topic Author
  • Thank You: 162
  • Reputation: 144
  • Activity:
    0.2%
  • Country: in
  • Posts: 925
  • Topics: 196
  • Join Date: Nov 2011
  • ShareSpark Member
sound is english. right??
Yes but hard coded Korean Sub.
So you cant turn them off.
:bounce:
  :bounce:

 

Related Topics





Back to top