+ ShareSpark.net »  :::: Bollywood Zone » Indian TV Shows
|- The Kapil Sharma Show (2017) Ep111 Untouched WEB-DL AAC - Hon3yHD


10% SBI and 10% Discount

The Kapil Sharma Show (2017) Ep111 Untouched WEB-DL AAC - Hon3yHD

0 Members and 1 Guest are viewing this topic.

June 06, 2017, 05:56:51 PM
  • Allways Be Happy..
  • Junior Moderator
  • Royal Member
  • ***
  • Topic Author
  • Thank You: 427
  • Reputation: 162
  • Activity:
    0%
  • Country: in
  • Posts: 866
  • Topics: 486
  • Join Date: Aug 2013
  • 11 Am To 11 Pm Always Online...


The Kapil Sharma Show (2017) Ep111 Untouched WEB-DL AAC - Hon3yHD



Format : MPEG-4
Format profile : Base Media
Codec ID : isom (isom/iso2/avc1/mp41)
File size : 472 MiB
Duration : 59 min 57 s
Overall bit rate : 1 100 kb/s
Writing application : Lavf56.40.101

Video
ID : 1
Format : AVC
Format/Info : Advanced Video Codec
Format profile : [email protected]
Format settings, CABAC : Yes
Format settings, ReFrames : 3 frames
Format settings, GOP : M=1, N=50
Codec ID : avc1
Codec ID/Info : Advanced Video Coding
Duration : 59 min 57 s
Bit rate : 999 kb/s
Width : 640 pixels
Height : 360 pixels
Display aspect ratio : 16:9
Frame rate mode : Constant
Frame rate : 25.000 FPS
Color space : YUV
Chroma subsampling : 4:2:0
Bit depth : 8 bits
Scan type : Progressive
Bits/(Pixel*Frame) : 0.173
Stream size : 428 MiB (91%)
Writing library : Zencoder Video Encoding System
Color range : Limited
Color primaries : BT.709
Transfer characteristics : BT.709
Matrix coefficients : BT.709

Audio
ID : 2
Format : AAC
Format/Info : Advanced Audio Codec
Format profile : LC
Codec ID : 40
Duration : 59 min 57 s
Bit rate mode : Constant
Bit rate : 96.0 kb/s
Channel(s) : 2 channels
Channel positions : Front: L R
Sampling rate : 44.1 kHz
Frame rate : 43.066 FPS (1024 spf)
Compression mode : Lossy
Stream size : 41.2 MiB (9%)
Default : Yes
Alternate group : 1










 




Share this topic on FacebookShare this topic on GoogleShare this topic on MySpaceShare this topic on TwitterShare this topic on Yahoo




June 12, 2017, 02:00:13 AM
Reply #1
  • Elite Forces
  • ****
  • Thank You: 244
  • Reputation: 105
  • Activity:
    8.4%
  • Country: sa
  • Posts: 1172
  • Topics: 130
  • Join Date: Jan 2017
  • ShareSpark Member

June 18, 2017, 05:34:47 PM
Reply #2
  • Hot Member
  • ***
  • Thank You: 25
  • Reputation: 8
  • Activity:
    6.4%
  • Country: bd
  • Posts: 621
  • Topics: 12
  • Join Date: Jun 2017
  • ShareSpark Member

Tags:
 

Related Topics





Back to top