+ ShareSpark.net »  :::: Hollywood Zone » Hollywood Movies (Original Rips) » High Resolution Movies
|- Transformers - Age of Extinction (2014) (1080p Bluray x265 HEVC 10bit AAC 7.1 Tigole) [UTR]


Transformers - Age of Extinction (2014) (1080p Bluray x265 HEVC 10bit AAC 7.1 Tigole) [UTR]

0 Members and 1 Guest are viewing this topic.

April 01, 2017, 11:08:35 PM
  • Hero Member
  • ***
  • Topic Author
  • Thank You: 72
  • Reputation: 5
  • Activity:
    0%
  • Country: in
  • Posts: 317
  • Topics: 142
  • Join Date: Dec 2016
  • ShareSpark Member
Transformers - Age of Extinction (2014) (1080p Bluray x265 HEVC 10bit AAC 7.1 Tigole) [UTR]





Transformers: Age of Extinction 2014 in 1080p, encoded with x265 in HEVC and AAC 7.1 English, with subtitles!
Encoded using the time consuming 2 pass, 10 bit color at 3250 kbps, from a Blu-ray source, for the highest quality possible.


General
Format : Matroska
Format version : Version 4 / Version 2
File size : 4.29 GiB
Duration : 2 h 45 min
Overall bit rate : 3 720 kb/s
Movie name : Transformers: Age of Extinction
Encoded date : UTC 2017-03-28 15:43:14
Writing application : mkvmerge v9.6.0 (\'Slave To Your Mind\') 64bit
Writing library : libebml v1.3.4 + libmatroska v1.4.5

Video
ID : 1
Format : HEVC
Format/Info : High Efficiency Video Coding
Format profile : Main [email protected]@Main
Codec ID : V_MPEGH/ISO/HEVC
Duration : 2 h 45 min
Bit rate : 3 260 kb/s
Width : 1 920 pixels
Height : 800 pixels
Display aspect ratio : 2.40:1
Frame rate mode : Constant
Frame rate : 23.976 (24000/1001) FPS
Color space : YUV
Chroma subsampling : 4:2:0
Bit depth : 10 bits
Bits/(Pixel*Frame) : 0.089
Stream size : 3.76 GiB (88%)
Writing library : x265 2.3+22-db5e22b856f5:[Windows][GCC 6.3.0][64 bit] 10bit

Audio
ID : 2
Format : AAC
Format/Info : Advanced Audio Codec
Format profile : LC
Codec ID : A_AAC
Duration : 2 h 45 min
Bit rate : 402 kb/s
Channel(s) : 8 channels
Channel positions : Front: L C R, Side: 4, LFE
Sampling rate : 48.0 kHz
Frame rate : 46.875 FPS (1024 spf)
Compression mode : Lossy
Delay relative to video : 20 ms
Stream size : 475 MiB (11%)
Language : English
Default : Yes
Forced : No














DOWNLOAD

Share this topic on FacebookShare this topic on GoogleShare this topic on MySpaceShare this topic on TwitterShare this topic on Yahoo




Tags:
 

Related Topics





Back to top