+ ShareSpark.net »  :::: Dubbed Zone (Dubbed English in Hindi) » English Movies Dubbed in Hindi » Dubbed Hindi Audio Files
|- The Chronicles of Riddick (2004) UnRaTeD DC VCD DD 2.0 Hindi Audio Perfect Sync By TEAMSTEELxXx

Subscribe and Save
  • The Chronicles of Riddick (2004) UnRaTeD DC VCD DD 2.0 Hindi Audio Perfect Sync By TEAMSTEELxXx 5 1
Currently:  

The Chronicles of Riddick (2004) UnRaTeD DC VCD DD 2.0 Hindi Audio Perfect Sync By TEAMSTEELxXx

0 Members and 1 Guest are viewing this topic.

February 02, 2017, 06:42:36 PM
  • Admin
  • Legend Member
  • ****
  • Topic Author
  • Thank You: 3401
  • Reputation: 1214
  • Activity:
    3.6%
  • Posts: 5927
  • Topics: 3330
  • Join Date: Apr 2012
  • No Tears For The Dead
  • Expertises:
  • All Rounder In Each Field




23.976fps

Audio
Format : AC-3
Format/Info : Audio Coding 3
Format profile : Dolby Digital
Mode extension : CM (complete main)
Format settings, Endianness : Big
Duration : 2 h 14 min
Bit rate mode : Constant
Bit rate : 224 kb/s
Channel(s) : 2 channels
Channel positions : Front: L R
Sampling rate : 48.0 kHz
Frame rate : 31.250 FPS (1536 spf)
Bit depth : 16 bits
Compression mode : Lossy
Stream size : 215 MiB (100%)

Sync With ETRG Without Any Delay




25 Fps



Source Used
The Chronicles of Riddick 2004 Org Untouched Vcd DD 2.0 224Kbps Hindi By ~Rider (HDDR)- 25Fps
Audio
Format : AC-3
Format/Info : Audio Coding 3
Format profile : Dolby Digital
Mode extension : CM (complete main)
Format settings, Endianness : Big
Duration : 1 h 54 min
Bit rate mode : Constant
Bit rate : 224 kb/s
Channel(s) : 2 channels
Channel positions : Front: L R
Sampling rate : 48.0 kHz
Frame rate : 31.250 FPS (1536 spf)
Bit depth : 16 bits
Compression mode : Lossy
Stream size : 183 MiB (100%)







Share this topic on FacebookShare this topic on GoogleShare this topic on MySpaceShare this topic on TwitterShare this topic on Yahoo



Thanks given by:


February 02, 2017, 10:40:05 PM
Reply #1
  • Elite Moderator
  • Legend Member
  • ****
  • Thank You: 1996
  • Reputation: 286
  • Activity:
    2.6%
  • Country: in
  • Posts: 3716
  • Topics: 2852
  • Join Date: Sep 2016
  • (: EnJOy D LiFe :)

February 03, 2017, 05:05:19 PM
Reply #2
  • Senior Member
  • ***
  • Thank You: 25
  • Reputation: -10
  • Activity:
    0%
  • Country: bd
  • Posts: 246
  • Topics: 8
  • Join Date: Jan 2017
  • ShareSpark Member

December 07, 2017, 05:58:49 PM
Reply #3
  • Devoted Member
  • **
  • Thank You: 0
  • Reputation: 1
  • Activity:
    1%
  • Country: in
  • Posts: 150
  • Topics: 0
  • Join Date: Dec 2015
  • ShareSpark Member
Please update the links bcs files are expired or removed .... Respected...All Admin

Tags:
 

Related Topics




Back to top