+ ShareSpark.net »  :::: Bollywood Zone » Bollywood Movies (Original Rips) » Bollywood Movies (1945-2000)
|- Saudagar (1991) Hindi 720p HDRip x264 AAC 1.2GB


BMS 50% Off

Saudagar (1991) Hindi 720p HDRip x264 AAC 1.2GB

0 Members and 1 Guest are viewing this topic.

January 27, 2017, 11:50:10 AM
  • Begginer
  • **
  • Topic Author
  • Thank You: 76
  • Reputation: 9
  • Activity:
    0%
  • Country: mx
  • Posts: 90
  • Topics: 86
  • Join Date: Dec 2016
  • ShareSpark Member


:info:



Format                                   : Matroska
Format version                           : Version 4 / Version 2
File size                                : 1.25 GiB
Duration                                 : 2 h 52 min
Overall bit rate                         : 1 041 kb/s
Encoded date                             : UTC 2017-01-25 10:39:59
Writing application                      : mkvmerge v7.0.0 ('Where We Going') 64bit built on Jun  9 2014 15:16:27
Writing library                          : libebml v1.3.0 + libmatroska v1.4.1

Video
ID                                       : 1
Format                                   : AVC
Format/Info                              : Advanced Video Codec
Format profile                           : [email protected]
Format settings, CABAC                   : Yes
Format settings, ReFrames                : 4 frames
Codec ID                                 : V_MPEG4/ISO/AVC
Duration                                 : 2 h 52 min
Bit rate                                 : 911 kb/s
Width                                    : 1 280 pixels
Height                                   : 546 pixels
Display aspect ratio                     : 2.35:1
Frame rate mode                          : Constant
Frame rate                               : 25.000 FPS
Color space                              : YUV
Chroma subsampling                       : 4:2:0
Bit depth                                : 8 bits
Scan type                                : Progressive
Bits/(Pixel*Frame)                       : 0.052
Stream size                              : 1.10 GiB (87%)
Writing library                          : x264 core 142 r2479 dd79a61
Default                                  : Yes
Forced                                   : No
Color range                              : Limited
Color primaries                          : BT.709
Transfer characteristics                 : BT.709
Matrix coefficients                      : BT.709

Audio
ID                                       : 2
Format                                   : AAC
Format/Info                              : Advanced Audio Codec
Format profile                           : LC
Codec ID                                 : A_AAC
Duration                                 : 2 h 52 min
Bit rate                                 : 128 kb/s
Channel(s)                               : 2 channels
Channel positions                        : Front: L R
Sampling rate                            : 44.1 kHz
Frame rate                               : 43.066 FPS (1024 spf)
Compression mode                         : Lossy
Stream size                              : 158 MiB (12%)
Default                                  : Yes
Forced                                   : No



:ss:











:download:





Share this topic on FacebookShare this topic on GoogleShare this topic on MySpaceShare this topic on TwitterShare this topic on Yahoo




June 15, 2017, 04:29:16 PM
Reply #1
  • Hot Member
  • ***
  • Thank You: 24
  • Reputation: 8
  • Activity:
    10.2%
  • Country: bd
  • Posts: 565
  • Topics: 12
  • Join Date: Jun 2017
  • ShareSpark Member

Tags:
 

Related Topics




Back to top