+ ShareSpark.net »  :::: Bollywood Zone » Bollywood Movies (Pre Releases)
|- Raees (2017) Hindi [1CD] DvDScr x264 AC3 MAXPRO - 697 MB


Raees (2017) Hindi [1CD] DvDScr x264 AC3 MAXPRO - 697 MB

0 Members and 1 Guest are viewing this topic.

January 26, 2017, 09:28:13 AM
  • Elite Moderator
  • Legend Member
  • ****
  • Topic Author
  • Thank You: 2943
  • Reputation: 575
  • Activity:
    100%
  • Country: in
  • Posts: 2881
  • Topics: 2399
  • Join Date: Jan 2014
  • ShareSpark Member


Raees (2017) Hindi [1CD] DvDScr x264 AC3 MAXPRO - 697 MB

Format                                   : Matroska
Format version                           : Version 2
File size                                : 697 MiB
Duration                                 : 2h 23mn
Overall bit rate                         : 679 Kbps
Encoded date                             : UTC 2017-01-25 23:25:04
Writing application                      : mkvmerge v8.5.2 ('Crosses') 32bit
Writing library                          : libebml v1.3.3 + libmatroska v1.4.4

Video
ID                                       : 1
Format                                   : AVC
Format/Info                              : Advanced Video Codec
Format profile                           : [email protected]
Format settings, CABAC                   : Yes
Format settings, ReFrames                : 4 frames
Codec ID                                 : V_MPEG4/ISO/AVC
Duration                                 : 2h 23mn
Bit rate                                 : 613 Kbps
Width                                    : 640 pixels
Height                                   : 272 pixels
Display aspect ratio                     : 2.35:1
Frame rate mode                          : Constant
Frame rate                               : 25.000 fps
Color space                              : YUV
Chroma subsampling                       : 4:2:0
Bit depth                                : 8 bits
Scan type                                : Progressive
Bits/(Pixel*Frame)                       : 0.141
Stream size                              : 617 MiB (89%)
Writing library                          : x264 core 148 r2638 7599210

Audio
ID                                       : 2
Format                                   : AC-3
Format/Info                              : Audio Coding 3
Mode extension                           : CM (complete main)
Format settings, Endianness              : Big
Codec ID                                 : A_AC3
Duration                                 : 2h 23mn
Bit rate mode                            : Constant
Bit rate                                 : 64.0 Kbps
Channel(s)                               : 2 channels
Channel positions                        : Front: L R
Sampling rate                            : 32.0 KHz
Compression mode                         : Lossy
Stream size                              : 65.7 MiB (9%)
Language                                 : English
Default                                  : Yes
Forced                                   : No


















Don't walk as you are king, walk as you don't care who the king is....!!
Never argue with an idiot. They drag you down to their level and then beat you with experience?

Share this topic on FacebookShare this topic on GoogleShare this topic on MySpaceShare this topic on TwitterShare this topic on Yahoo




Don't walk as you are king, walk as you don't care who the king is....!!

Thanks given by:


Tags:
 

Related Topics





Back to top