+ ShareSpark.net »  :::: Dubbed Zone (Dubbed English in Hindi) » TV Shows (Dubbed in Hindi)
|- House of Horrors-Kidnapped S01E03 Dual Audio Hindi-Eng 720p – HDTV X264 – [Team EDM]


Mastercard 10% Off

House of Horrors-Kidnapped S01E03 Dual Audio Hindi-Eng 720p – HDTV X264 – [Team EDM]

0 Members and 1 Guest are viewing this topic.

January 25, 2017, 04:52:02 PM
  • Semi Newbie
  • **
  • Topic Author
  • Thank You: 50
  • Reputation: 16
  • Activity:
    0%
  • Posts: 34
  • Topics: 29
  • Join Date: May 2016
  • ShareSpark Member
House of Horrors-Kidnapped S01E03 Dual Audio Hindi-Eng 720p – HDTV X264 – [Team EDM]

Based on TRUE Story


Format                                   : Matroska
Format version                           : Version 4 / Version 2
File size                                : 359 MiB
Duration                                 : 22 min 13 s
Overall bit rate                         : 2 262 kb/s

Video
ID                                       : 1
Format                                   : AVC
Format/Info                              : Advanced Video Codec
Format profile                           : [email protected]
Format settings, CABAC                   : Yes
Format settings, ReFrames                : 4 frames
Codec ID                                 : V_MPEG4/ISO/AVC
Duration                                 : 22 min 12 s
Bit rate                                 : 2 000 kb/s
Width                                    : 1 280 pixels
Height                                   : 720 pixels
Display aspect ratio                     : 16:9
Frame rate mode                          : Constant
Frame rate                               : 25.000 FPS
Color space                              : YUV
Chroma subsampling                       : 4:2:0
Bit depth                                : 8 bits
Scan type                                : Progressive
Bits/(Pixel*Frame)                       : 0.087
Stream size                              : 318 MiB (89%)


Audio #1
ID                                       : 2
Format                                   : AAC
Format/Info                              : Advanced Audio Codec
Format profile                           : LC
Codec ID                                 : A_AAC
Duration                                 : 22 min 12 s
Bit rate                                 : 128 kb/s
Channel(s)                               : 2 channels
Channel positions                        : Front: L R
Sampling rate                            : 44.1 kHz
Frame rate                               : 43.066 FPS (1024 spf)
Compression mode                         : Lossy
Stream size                              : 20.3 MiB (6%)


Audio #2
ID                                       : 3
Format                                   : MPEG Audio
Format version                           : Version 1
Format profile                           : Layer 3
Mode                                     : Joint stereo
Mode extension                           : MS Stereo
Codec ID                                 : A_MPEG/L3
Codec ID/Hint                            : MP3
Duration                                 : 22 min 12 s
Bit rate mode                            : Constant
Bit rate                                 : 128 kb/s
Channel(s)                               : 2 channels
Sampling rate                            : 44.1 kHz
Frame rate                               : 38.281 FPS (1152 spf)
Compression mode                         : Lossy
Delay relative to video                  : -80 ms
Stream size                              : 20.3 MiB (6%)
Take It Or Leave It
lip to lip Sync by TEAM-EDM
leave Only 1  Comment - I will Reply with more TEAM-EDM Exclusive Movies


Stay toon With Us For More Exclusive Release

SAMPLE

:ss:
:dance:
:pakistan:
:download:

Share this topic on FacebookShare this topic on GoogleShare this topic on MySpaceShare this topic on TwitterShare this topic on Yahoo

« Last Edit: January 25, 2017, 04:53:26 PM by ahmedmaher »



Tags: house kidnapped ep3 
 

Related Topics





Back to top