+ ShareSpark.net »  :::: Hollywood Zone » Hollywood Movies (Original Rips) » Small Size Hollywood Movies
|- The Hollow Point 2016 BDRip x264 477MB [ROVERS]


The Hollow Point 2016 BDRip x264 477MB [ROVERS]

0 Members and 1 Guest are viewing this topic.

January 13, 2017, 06:46:04 PM
  • Addic7ed
  • Legend Member
  • ****
  • Topic Author
  • Thank You: 1536
  • Reputation: 199
  • Activity:
    79.4%
  • Country: in
  • Posts: 2891
  • Topics: 2145
  • Join Date: Sep 2016
  • (: EnJOy D LiFe :)
:title:
The Hollow Point 2016 BDRip x264 ROVERS



 :info:

Video
ID                                       : 1
Format                                   : AVC
Format/Info                              : Advanced Video Codec
Format profile                           : [email protected]
Format settings, CABAC                   : Yes
Format settings, ReFrames                : 5 frames
Codec ID                                 : V_MPEG4/ISO/AVC
Duration                                 : 1h 37mn
Bit rate                                 : 582 Kbps
Width                                    : 720 pixels
Height                                   : 300 pixels
Display aspect ratio                     : 2.40:1
Frame rate mode                          : Constant
Frame rate                               : 23.976 fps
Color space                              : YUV
Chroma subsampling                       : 4:2:0
Bit depth                                : 8 bits
Scan type                                : Progressive
Bits/(Pixel*Frame)                       : 0.112
Stream size                              : 405 MiB (85%)
Title                                    : X264
Writing library                          : x264 core 148 r2744 b97ae06
Language                                 : English
Default                                  : Yes
Forced                                   : No
Color range                              : Limited
Matrix coefficients                      : BT.709

Audio
Format                                   : AAC
Format/Info                              : Advanced Audio Codec
Format profile                           : LC
Codec ID                                 : A_AAC
Duration                                 : 1h 37mn
Bit rate                                 : 101 Kbps
Channel(s)                               : 2 channels
Channel positions                        : Front: L R
Sampling rate                            : 48.0 KHz
Frame rate                               : 46.875 fps (1024 spf)
Compression mode                         : Lossy
Stream size                              : 70.4 MiB (15%)
Language                                 : English
Default                                  : Yes
Forced                                   : No


 :ss:



 :download:








Share this topic on FacebookShare this topic on GoogleShare this topic on MySpaceShare this topic on TwitterShare this topic on Yahoo




Tags:
 

Related Topics

  Subject / Started by Replies Last post
0 Replies
152 Views
Last post December 16, 2016, 09:05:20 PM
by PSYCHO
0 Replies
354 Views
Last post December 26, 2016, 05:43:36 PM
by PSYCHO
1 Replies
597 Views
Last post January 16, 2017, 09:44:31 PM
by s¡lєит_αssαss¡и
0 Replies
202 Views
Last post February 17, 2017, 06:23:11 AM
by PSYCHO
0 Replies
243 Views
Last post February 19, 2017, 04:44:19 PM
by PSYCHO




Back to top