+ ShareSpark.net »  :::: Dubbed Zone (Dubbed English in Hindi) » English Movies Dubbed in Hindi » High Resolution Movies
|- Mechanic Resurrection 2016 BluRay 1080p x264 Hindi-Tamil-Telugu-Eng DD 5.1 [Hon3y] 4.5GB GD Link


Flipkart Offer

Mechanic Resurrection 2016 BluRay 1080p x264 Hindi-Tamil-Telugu-Eng DD 5.1 [Hon3y] 4.5GB GD Link

0 Members and 1 Guest are viewing this topic.

January 12, 2017, 04:20:18 AM
  • Team SSX
  • Legend Member
  • ***
  • Topic Author
  • Thank You: 1315
  • Reputation: 175
  • Activity:
    100%
  • Country: in
  • Posts: 2477
  • Topics: 1803
  • Join Date: Sep 2016
  • (: EnJOy D LiFe :)
Flipkart Offer
:title:
Mechanic Resurrection 2016 BluRay 1080p x264 [Hindi-Tamil-Telugu-English] DD 5.1 [Hon3y]



General
Format                      : Matroska
Format version              : Version 4 / Version 2
File size                   : 4.53 GiB
Duration                    : 1 h 38 min
Overall bit rate            : 6 576 kb/s
Movie name                  : Mechanic [email protected]

Video
Format                      : AVC
Format/Info                 : Advanced Video Codec
Format profile              : [email protected]
Format settings, CABAC      : Yes
Format settings, ReFrames   : 5 frames
Codec ID                    : V_MPEG4/ISO/AVC
Duration                    : 1 h 38 min
Bit rate                    : 5 448 kb/s
Width                       : 1 920 pixels
Height                      : 800 pixels
Display aspect ratio        : 2.40:1
Frame rate mode             : Constant
Frame rate                  : 23.976 (24000/1001) FPS
Color space                 : YUV
Chroma subsampling          : 4:2:0
Bit depth                   : 8 bits
Scan type                   : Progressive
Bits/(Pixel*Frame)          : 0.148
Stream size                 : 3.75 GiB (83%)
Title                       : Mechanic [email protected]

Special Thanks To GP Soft Bro For Hindi Tamil And Telugu Audios

Audio 1
Format                      : AC-3
Format/Info                 : Audio Coding 3
Mode extension              : CM (complete main)
Format settings, Endianness : Big
Codec ID                    : A_AC3
Duration                    : 1 h 38 min
Bit rate mode               : Constant
Bit rate                    : 224 kb/s
Channel(s)                  : 6 channels
Channel positions           : Front: L C R, Side: L R, LFE
Sampling rate               : 48.0 kHz
Frame rate                  : 31.250 FPS (1536 spf)
Bit depth                   : 16 bits
Compression mode            : Lossy
Stream size                 : 158 MiB (3%)
Title                       : [email protected]
Language                    : Hindi
Default                     : Yes
Forced                      : Yes

Audio 2
Format                      : AC-3
Format/Info                 : Audio Coding 3
Mode extension              : CM (complete main)
Format settings, Endianness : Big
Codec ID                    : A_AC3
Duration                    : 1 h 38 min
Bit rate mode               : Constant
Bit rate                    : 224 kb/s
Channel(s)                  : 6 channels
Channel positions           : Front: L C R, Side: L R, LFE
Sampling rate               : 48.0 kHz
Frame rate                  : 31.250 FPS (1536 spf)
Bit depth                   : 16 bits
Compression mode            : Lossy
Stream size                 : 158 MiB (3%)
Title                       : [email protected]
Language                    : Tamil
Default                     : No

Audio 3
Format                      : AC-3
Format/Info                 : Audio Coding 3
Mode extension              : CM (complete main)
Format settings, Endianness : Big
Codec ID                    : A_AC3
Duration                    : 1 h 38 min
Bit rate mode               : Constant
Bit rate                    : 224 kb/s
Channel(s)                  : 6 channels
Channel positions           : Front: L C R, Side: L R, LFE
Sampling rate               : 48.0 kHz
Frame rate                  : 31.250 FPS (1536 spf)
Bit depth                   : 16 bits
Compression mode            : Lossy
Stream size                 : 158 MiB (3%)
Title                       : [email protected]
Language                    : Telugu
Default                     : No

Audio 4
Format                      : AC-3
Format/Info                 : Audio Coding 3
Mode extension              : CM (complete main)
Format settings, Endianness : Big
Codec ID                    : A_AC3
Duration                    : 1 h 38 min
Bit rate mode               : Constant
Bit rate                    : 448 kb/s
Channel(s)                  : 6 channels
Channel positions           : Front: L C R, Side: L R, LFE
Sampling rate               : 48.0 kHz
Frame rate                  : 31.250 FPS (1536 spf)
Bit depth                   : 16 bits
Compression mode            : Lossy
Delay relative to video     : 78 ms
Stream size                 : 316 MiB (7%)
Title                       : [email protected]
Language                    : English
Default                     : No

Subtitle 1
Format                      : PGS
Muxing mode                 : zlib
Codec ID                    : S_HDMV/PGS
Codec ID/Info               : Picture based subtitle format used on BDs/HD-DVDs
Duration                    : 1 h 30 min
Bit rate                    : 7 704 b/s
Count of elements           : 1278
Stream size                 : 5.00 MiB (0%)
Title                       : [email protected]
Language                    : English
Default                     : Yes
Forced                      : No


NOTE : AUDIOS OUT OF SYNC AFTER SOMETIME
USE AUDIOS BY ~PyZ AND MUXED IT USING MKVMERGE AKA MKVTOOLNIX


 :ss:























NOTE : AUDIOS OUT OF SYNC AFTER SOMETIME
USE AUDIOS BY ~PyZ AND MUXED IT USING MKVMERGE AKA MKVTOOLNIX


CLICK IMAGE TO ENLARGE

 :download:



GD LINK :





Share this topic on FacebookShare this topic on GoogleShare this topic on MySpaceShare this topic on TwitterShare this topic on Yahoo

« Last Edit: January 13, 2017, 03:45:11 PM by PSYCHO »


Thanks given by:


Flipkart Offer
January 12, 2017, 10:28:41 AM
Reply #1
  • Addic7ed
  • Legend Member
  • ****
  • Thank You: 1727
  • Reputation: 305
  • Activity:
    100%
  • Country: in
  • Posts: 1986
  • Topics: 1669
  • Join Date: Jan 2014
  • ShareSpark Member

Don't walk as you are king, walk as you don't care who the king is....!!

January 21, 2017, 10:02:22 AM
Reply #2
  • Hero Member
  • ***
  • Thank You: 65
  • Reputation: 5
  • Activity:
    40.2%
  • Country: in
  • Posts: 310
  • Topics: 142
  • Join Date: Dec 2016
  • ShareSpark Member

January 21, 2017, 10:03:40 AM
Reply #3
  • Team SSX
  • Legend Member
  • ***
  • Topic Author
  • Thank You: 1315
  • Reputation: 175
  • Activity:
    100%
  • Country: in
  • Posts: 2477
  • Topics: 1803
  • Join Date: Sep 2016
  • (: EnJOy D LiFe :)

Tags:
 

Related Topics

  Subject / Started by Replies Last post
2 Replies
667 Views
Last post November 13, 2016, 10:43:07 AM
by sharing_caring
4 Replies
1357 Views
Last post March 04, 2017, 05:01:34 AM
by Rάήνίјάч1234
9 Replies
845 Views
Last post January 27, 2017, 02:59:13 PM
by honey01
1 Replies
654 Views
Last post January 13, 2017, 01:14:06 AM
by vish790
0 Replies
615 Views
Last post January 13, 2017, 01:37:48 PM
by PSYCHO




Back to top