+ ShareSpark.net »  :::: Dubbed Zone (Dubbed English in Hindi) » TV Shows (Dubbed in Hindi)
|- The 2 Million Year Old Boy 2011 Nat Geo 720p Dual Audio Hindi-Eng HDTV x264-[Team EDM]

Weekend Pay And Play 50% Off

The 2 Million Year Old Boy 2011 Nat Geo 720p Dual Audio Hindi-Eng HDTV x264-[Team EDM]

0 Members and 1 Guest are viewing this topic.

January 14, 2017, 09:49:13 PM
  • Semi Newbie
  • **
  • Topic Author
  • Thank You: 50
  • Reputation: 16
  • Activity:
    0%
  • Posts: 34
  • Topics: 29
  • Join Date: May 2016
  • ShareSpark Member
The 2 Million Year Old Boy 2011 Nat Geo 720p Dual Audio Hindi-Eng HDTV x264-[Team EDM]


Format                                   : Matroska
Format version                           : Version 4 / Version 2
File size                                : 514 MiB
Duration                                 : 21 min 31 s
Overall bit rate                         : 3 339 kb/s


Video
ID                                       : 1
Format                                   : AVC
Format/Info                              : Advanced Video Codec
Format profile                           : [email protected]
Format settings, CABAC                   : Yes
Format settings, ReFrames                : 4 frames
Codec ID                                 : V_MPEG4/ISO/AVC
Duration                                 : 21 min 31 s
Bit rate                                 : 3 000 kb/s
Width                                    : 1 280 pixels
Height                                   : 720 pixels
Display aspect ratio                     : 16:9
Frame rate mode                          : Constant
Frame rate                               : 25.000 FPS



Audio #1
ID                                       : 2
Format                                   : AAC
Format/Info                              : Advanced Audio Codec
Format profile                           : LC
Codec ID                                 : A_AAC
Duration                                 : 21 min 31 s
Bit rate                                 : 172 kb/s
Channel(s)                               : 2 channels
Channel positions                        : Front: L R
Sampling rate                            : 44.1 kHz
Frame rate                               : 43.066 FPS (1024 spf)
Compression mode                         : Lossy
Stream size                              : 26.5 MiB (5%)
Language                                 : Hindi
Default                                  : Yes
Forced                                   : No

Audio #2
ID                                       : 3
Format                                   : MPEG Audio
Format version                           : Version 1
Format profile                           : Layer 3
Mode                                     : Joint stereo
Codec ID                                 : A_MPEG/L3
Codec ID/Hint                            : MP3
Duration                                 : 21 min 31 s
Bit rate mode                            : Constant
Bit rate                                 : 160 kb/s
Channel(s)                               : 2 channels
Sampling rate                            : 44.1 kHz
Frame rate                               : 38.281 FPS (1152 spf)
Compression mode                         : Lossy
Delay relative to video                  : -80 ms
Stream size                              : 24.6 MiB (5%)
Writing library                          : LAME3.98.2
Language                                 : English
Default                                  : No
Forced                                   : No
Take It Or Leave It
lip to lip Sync by TEAM-EDM
leave Only 1  Comment - I will Reply with more TEAM-EDM Exclusive Movies

Audio Source-AHMED-MAHER-Thanks


Stay toon With Us For More Exclusive Release

SAMPLE

:ss:
:dance:
:pakistan:
:download:

Share this topic on FacebookShare this topic on GoogleShare this topic on MySpaceShare this topic on TwitterShare this topic on Yahoo

« Last Edit: January 14, 2017, 09:56:48 PM by ahmedmaher »


Thanks given by:


Tags: million boy 
 

Related Topics




Back to top