+ ShareSpark.net »  :::: Hollywood Zone » Hollywood Movies (Original Rips) » High Resolution Movies
|- Lost in the Pacific 2016 1080p WEB-DL DD5.1 H264 3.5GB [FGT]


Lost in the Pacific 2016 1080p WEB-DL DD5.1 H264 3.5GB [FGT]

0 Members and 1 Guest are viewing this topic.

January 10, 2017, 05:27:01 PM
  • Team SSX
  • Legend Member
  • ***
  • Topic Author
  • Thank You: 1208
  • Reputation: 163
  • Activity:
    100%
  • Country: in
  • Posts: 2211
  • Topics: 1587
  • Join Date: Sep 2016
  • (: EnJOy D LiFe :)
Torrable - One stop for all your download & upload needs. It's smart, easy and free.
:title:
Lost in the Pacific 2016 1080p WEB-DL DD5.1 H264 FGT



Video
ID                                       : 1
Format                                   : AVC
Format/Info                              : Advanced Video Codec
Format profile                           : [email protected]
Format settings, CABAC                   : Yes
Format settings, ReFrames                : 4 frames
Codec ID                                 : V_MPEG4/ISO/AVC
Duration                                 : 1h 29mn
Bit rate                                 : 5 087 Kbps
Width                                    : 1 908 pixels
Height                                   : 1 032 pixels
Display aspect ratio                     : 1.85:1
Frame rate mode                          : Constant
Frame rate                               : 23.976 (24000/1001) fps
Color space                              : YUV
Chroma subsampling                       : 4:2:0
Bit depth                                : 8 bits
Scan type                                : Progressive
Bits/(Pixel*Frame)                       : 0.108
Stream size                              : 3.20 GiB (91%)
Title                                    : Lost.in.the.Pacific.2016.1080p.WEB-DL.DD5.1.H264-FGT
Language                                 : English
Default                                  : Yes
Forced                                   : No
Color range                              : Limited
Color primaries                          : BT.709
Transfer characteristics                 : BT.709
Matrix coefficients                      : BT.709

Audio
ID                                       : 2
Format                                   : AC-3
Format/Info                              : Audio Coding 3
Mode extension                           : CM (complete main)
Format settings, Endianness              : Big
Codec ID                                 : A_AC3
Duration                                 : 1h 29mn
Bit rate mode                            : Constant
Bit rate                                 : 384 Kbps
Channel(s)                               : 6 channels
Channel positions                        : Front: L C R, Side: L R, LFE
Sampling rate                            : 48.0 KHz
Frame rate                               : 31.250 fps (1536 spf)
Compression mode                         : Lossy
Stream size                              : 247 MiB (7%)
Title                                    : Lost.in.the.Pacific.2016.1080p.WEB-DL.DD5.1.H264-FGT
Language                                 : English
Default                                  : Yes
Forced                                   : No

Text
ID                                       : 3
Format                                   : UTF-8
Codec ID                                 : S_TEXT/UTF8
Codec ID/Info                            : UTF-8 Plain Text
Language                                 : English
Default                                  : Yes
Forced                                   : No


 :ss:











 :download:








SUBTITLES :



Share this topic on FacebookShare this topic on GoogleShare this topic on MySpaceShare this topic on TwitterShare this topic on Yahoo



Thanks given by:


Tags:
 

Related Topics

  Subject / Started by Replies Last post
1 Replies
485 Views
Last post October 08, 2013, 04:19:53 AM
by asharun
2 Replies
943 Views
Last post October 08, 2013, 03:23:45 PM
by ıllıllı αнʍє иυя ıllıllı
0 Replies
338 Views
Last post May 25, 2014, 03:44:37 AM
by ţ€ąʍ$ţ€€ℓжжж
0 Replies
134 Views
Last post January 10, 2017, 03:22:44 PM
by PSYCHO
0 Replies
115 Views
Last post January 11, 2017, 03:49:43 PM
by PSYCHO




Back to top