+ ShareSpark.net »  :::: Dubbed Zone (Dubbed English in Hindi) » TV Shows (Dubbed in Hindi)
|- The-100-S01E01 Hindi 720p – HDTV X264 –[Team EDM]


The-100-S01E01 Hindi 720p – HDTV X264 –[Team EDM]

0 Members and 1 Guest are viewing this topic.

January 07, 2017, 11:20:03 PM
  • Semi Newbie
  • **
  • Topic Author
  • Thank You: 22
  • Reputation: 5
  • Activity:
    4.8%
  • Country: pk
  • Posts: 24
  • Topics: 18
  • Join Date: May 2016
  • ShareSpark Member
Torrable - One stop for all your download & upload needs. It's smart, easy and free.
The-100-S01E01 Hindi 720p – HDTV X264 –[Team EDM]

1st On NET-ENJOY

General
Format                                   : Matroska
Format version                           : Version 4 / Version 2
File size                                : 626 MiB
Duration                                 : 39 min 25 s
Overall bit rate                         : 2 219 kb/s


Video
ID                                       : 1
Format                                   : AVC
Format/Info                              : Advanced Video Codec
Format profile                           : [email protected]
Format settings, CABAC                   : Yes
Format settings, ReFrames                : 4 frames
Codec ID                                 : V_MPEG4/ISO/AVC
Duration                                 : 39 min 25 s
Bit rate                                 : 2 027 kb/s
Width                                    : 1 280 pixels
Height                                   : 720 pixels
Display aspect ratio                     : 16:9
Frame rate mode                          : Constant
Frame rate                               : 25.000 FPS
Color space                              : YUV
Chroma subsampling                       : 4:2:0
Bit depth                                : 8 bits
Scan type                                : Progressive
Bits/(Pixel*Frame)                       : 0.088
Stream size                              : 571 MiB (91%)
Language                                 : English


Audio
ID                                       : 2
Format                                   : AAC
Format/Info                              : Advanced Audio Codec
Format profile                           : LC
Codec ID                                 : A_AAC
Duration                                 : 39 min 25 s
Bit rate                                 : 192 kb/s
Channel(s)                               : 2 channels
Channel positions                        : Front: L R
Sampling rate                            : 48.0 kHz
Frame rate                               : 46.875 FPS (1024 spf)
Compression mode                         : Lossy
Delay relative to video                  : -21 ms
Stream size                              : 54.2 MiB (9%)
Language                                 : Hindi
Default                                  : Yes
Forced                                   : No

This is Urdu(PAK Dubbed) Audio
Keep in Mind
Ahmed Maher Thanks
Take It Or Leave It


Stay toon With Us For More Exclusive Release

:ss:
:dance:
:pakistan:
:happynewyear:
:dl:
:download:

Share this topic on FacebookShare this topic on GoogleShare this topic on MySpaceShare this topic on TwitterShare this topic on Yahoo



Thanks given by:


January 08, 2017, 01:11:47 PM
Reply #1
  • Newbie
  • **
  • Thank You: 0
  • Reputation: 0
  • Activity:
    0.2%
  • Country: pk
  • Posts: 4
  • Topics: 0
  • Join Date: Apr 2016
  • ShareSpark Member

January 09, 2017, 04:42:32 PM
Reply #2
  • Head Admin
  • Legend Member
  • *****
  • Thank You: 1310
  • Reputation: 1029
  • Activity:
    3.2%
  • Country: in
  • Posts: 5560
  • Topics: 1503
  • Join Date: Dec 2010
  • Expertises:
  • Tv Shows
If you like any post, then say thanks to the uploader by posting in his topic, adding thanks and reputes to him.
Because we all want is just a little appreciation from you.

Tags: 100 
 

Related Topics

  Subject / Started by Replies Last post
0 Replies
103 Views
Last post September 26, 2016, 12:01:04 PM
by ♥[--K4Krish--]♥
1 Replies
129 Views
Last post September 28, 2016, 07:47:57 AM
by -Ð@Rk.ÐèVi£-
2 Replies
731 Views
Last post December 31, 2016, 12:04:02 PM
by VDA
1 Replies
400 Views
Last post January 13, 2017, 03:41:34 AM
by goldysidhuzz
0 Replies
207 Views
Last post January 20, 2017, 11:20:40 PM
by ahmedmaher




Back to top