+ ShareSpark.net »  :::: Bollywood Zone » Regional Movies » Bengali Movies
|- Eagoler.Chokh.(2016)-HEVC-DVD.Rip-x265.AAC.Esubs-550 MB-[DDR]


Eagoler.Chokh.(2016)-HEVC-DVD.Rip-x265.AAC.Esubs-550 MB-[DDR]

0 Members and 1 Guest are viewing this topic.

January 07, 2017, 09:58:27 PM
  • Team SSX
  • Senior Member
  • ***
  • Topic Author
  • Thank You: 100
  • Reputation: 24
  • Activity:
    10.6%
  • Country: in
  • Posts: 223
  • Topics: 173
  • Join Date: Oct 2016
  • Born To Live
:title:

Eagoler.Chokh.(2016)-HEVC-DVD.Rip-x265.AAC.Esubs-550 MB-[DDR]




:info:

General
Format : Matroska
Format version : Version 4 / Version 2
File size : 549 MiB
Duration : 1 h 57 min
Overall bit rate : 656 kb/s
bit rate mode : constant
Writing application : mkvmerge v9.7.1 ('Pandemonium') 64bit
Writing library : libebml v1.3.4 + libmatroska v1.4.5

Video
Format/Info : High Efficiency Video Coding
Format profile : [email protected]@Main
Codec ID : V_MPEGH/ISO/HEVC
Duration : 1 h 57 min
Bit rate : 526 kb/s
Width : 720 pixels
Height : 304 pixels
Display aspect ratio : 2.35:1
Frame rate mode : Constant
Frame rate : 23.976 FPS
Color space : YUV
Chroma subsampling : 4:2:0
Bit depth : 8 bits
Bits/(Pixel*Frame) : 0.100
Stream size : 441 MiB (78%)
Writing library : x265 2.2+17-a2fe29ca5c6c:[Windows][GCC 6.2.0][64 bit] 10bit

Audio
Format : AAC
Format/Info : Advanced Audio Codec
Format profile : HE-AAC / LC
Codec ID : A_AAC
Duration : 1 h 57 min
Bit rate : 128 kb/s
Channel(s) : 2 channels
Channel positions : Front: L R
Sampling rate : 48.0 kHz / 24.0 kHz
Frame rate : 23.438 FPS (1024 spf)
Compression mode : Lossy
Delay relative to video : 31 ms
Stream size : 107 MiB (16%)
Language : Bengali

Chapters & Subtitles
Chapters: 17
Subtitles: English (Separate SRT file included in Torrent)

Starring
Saswata Chattopadhyay, Subhrajit Dutta,Joya Ahsan, Payel Sarkar, Anirban Bhattacharya, Gaurav Chakraborty, Arunima Ghosh, Riya Banik, Joydeep Kundu, June Maliah, Ushashi Sengupta

Technical Team
Director: Arindam Sil; Producer: Shree Venkatesh Films; Music: Bickram Ghosh; DOP: Soumik Haldar; Editor: Dujoy Datta Ray:



:ss:






:lang:




:download:



Share this topic on FacebookShare this topic on GoogleShare this topic on MySpaceShare this topic on TwitterShare this topic on Yahoo



Born To Live. So always Positive

Tags:
 

Related Topics





Back to top