+ ShareSpark.net »  :::: Bollywood Zone » Bollywood Movies (Original Rips) » High Resolution Movies
|- Pyaar Ka Punchnama 2 (2015) WEB-HD Untouched 1080p Hon3yHD - [Exclusive]


Pyaar Ka Punchnama 2 (2015) WEB-HD Untouched 1080p Hon3yHD - [Exclusive]

0 Members and 1 Guest are viewing this topic.

January 07, 2017, 09:40:38 AM
  • Global Moderator
  • Legend Member
  • *****
  • Topic Author
  • Thank You: 1542
  • Reputation: 335
  • Activity:
    20.2%
  • Country: in
  • Posts: 3163
  • Topics: 1950
  • Join Date: Dec 2013
  • ShareSpark Member

Pyaar Ka Punchnama 2 (2015) WEB-HD Untouched 1080p Hon3yHD - [Exclusive]



Poster

   
   

   
   


















Format                                   : Matroska
File size                                : 3.83 GiB
Duration                                 : 2h 13mn
Overall bit rate                         : 4 118 Kbps

Video
ID                                       : 1
Format                                   : AVC
Format/Info                              : Advanced Video Codec
Format profile                           : [email protected]
Format settings, CABAC                   : Yes
Format settings, ReFrames                : 3 frames
Codec ID                                 : V_MPEG4/ISO/AVC
Duration                                 : 2h 13mn
Bit rate                                 : 3 988 Kbps
Width                                    : 1 920 pixels
Height                                   : 816 pixels
Display aspect ratio                     : 2.35:1
Frame rate mode                          : Constant
Frame rate                               : 25.000 fps
Stream size                              : 3.71 GiB (97%)

Audio
ID                                       : 2
Format                                   : AAC
Format/Info                              : Advanced Audio Codec
Format profile                           : LC
Codec ID                                 : A_AAC
Duration                                 : 2h 13mn
Bit rate                                 : 127 Kbps
Channel(s)                               : 2 channels
Channel positions                        : Front: L R
Sampling rate                            : 44.1 KHz
Frame rate                               : 43.066 fps (1024 spf)
Stream size                              : 121 MiB (3%)





All Credit Goes To Orignal Uploader










      











      
      

Share this topic on FacebookShare this topic on GoogleShare this topic on MySpaceShare this topic on TwitterShare this topic on Yahoo

« Last Edit: January 07, 2017, 09:45:00 AM by тнє ωαll 81317 »




Tags:
 

Related Topics





Back to top