+ ShareSpark.net »  :::: Dubbed Zone (Dubbed English in Hindi) » English Movies Dubbed in Hindi » High Resolution Movies
|- Hancock 2008 UNRATED BluRay 1080p x264 [Hindi - English] DD 5.1 [Hon3y] 4.4GB


Flipkart Offer

Hancock 2008 UNRATED BluRay 1080p x264 [Hindi - English] DD 5.1 [Hon3y] 4.4GB

0 Members and 1 Guest are viewing this topic.

January 06, 2017, 07:24:56 PM
  • Team SSX
  • Legend Member
  • ***
  • Topic Author
  • Thank You: 1305
  • Reputation: 173
  • Activity:
    100%
  • Country: in
  • Posts: 2461
  • Topics: 1789
  • Join Date: Sep 2016
  • (: EnJOy D LiFe :)
Flipkart Offer
:title:
Hancock 2008 UNRATED BluRay 1080p x264 [Hindi - English] DD 5.1 Hon3y



 :info:

General
Format                      : Matroska
Format version              : Version 4 / Version 2
File size                   : 4.41 GiB
Duration                    : 1 h 42 min
Overall bit rate            : 6 171 kb/s
Movie name                  : [email protected]

Video
Format                      : AVC
Format/Info                 : Advanced Video Codec
Format profile              : [email protected]
Format settings, CABAC      : Yes
Format settings, ReFrames   : 5 frames
Codec ID                    : V_MPEG4/ISO/AVC
Duration                    : 1 h 42 min
Bit rate                    : 5 449 kb/s
Width                       : 1 920 pixels
Height                      : 800 pixels
Display aspect ratio        : 2.40:1
Frame rate mode             : Constant
Frame rate                  : 23.976 (24000/1001) FPS
Color space                 : YUV
Chroma subsampling          : 4:2:0
Bit depth                   : 8 bits
Scan type                   : Progressive
Bits/(Pixel*Frame)          : 0.148
Stream size                 : 3.89 GiB (88%)
Title                       : [email protected]

Audio 1
Format                      : AC-3
Format/Info                 : Audio Coding 3
Mode extension              : CM (complete main)
Format settings, Endianness : Big
Codec ID                    : A_AC3
Duration                    : 1 h 42 min
Bit rate mode               : Constant
Bit rate                    : 224 kb/s
Channel(s)                  : 6 channels
Channel positions           : Front: L C R, Side: L R, LFE
Sampling rate               : 48.0 kHz
Frame rate                  : 31.250 FPS (1536 spf)
Bit depth                   : 16 bits
Compression mode            : Lossy
Stream size                 : 164 MiB (4%)
Title                       : [email protected]
Language                    : Hindi
Default                     : Yes
Forced                      : Yes

Audio 2
Format                      : AC-3
Format/Info                 : Audio Coding 3
Mode extension              : CM (complete main)
Format settings, Endianness : Big
Codec ID                    : A_AC3
Duration                    : 1 h 42 min
Bit rate mode               : Constant
Bit rate                    : 448 kb/s
Channel(s)                  : 6 channels
Channel positions           : Front: L C R, Side: L R, LFE
Sampling rate               : 48.0 kHz
Frame rate                  : 31.250 FPS (1536 spf)
Bit depth                   : 16 bits
Compression mode            : Lossy
Stream size                 : 328 MiB (7%)
Title                       : [email protected]
Language                    : English
Default                     : No

Subtitle 1
Format                      : PGS
Muxing mode                 : zlib
Codec ID                    : S_HDMV/PGS
Codec ID/Info               : Picture based subtitle format used on BDs/HD-DVDs
Duration                    : 1 h 35 min
Bit rate                    : 13.8 kb/s
Count of elements           : 2291
Stream size                 : 9.46 MiB (0%)
Title                       : [email protected]
Language                    : Hindi
Default                     : Yes
Forced                      : No

Subtitle 2
Format                      : PGS
Muxing mode                 : zlib
Codec ID                    : S_HDMV/PGS
Codec ID/Info               : Picture based subtitle format used on BDs/HD-DVDs
Duration                    : 1 h 35 min
Bit rate                    : 24.6 kb/s
Count of elements           : 3339
Stream size                 : 16.7 MiB (0%)
Title                       : [email protected]
Language                    : English
Default                     : No


 :ss:

















CLICK IMAGE TO ENLARGE

 :download:



GD Link :



Share this topic on FacebookShare this topic on GoogleShare this topic on MySpaceShare this topic on TwitterShare this topic on Yahoo

« Last Edit: January 06, 2017, 09:29:16 PM by PSYCHO »


Thanks given by:


Tags:
 

Related Topics





Back to top