+ ShareSpark.net »  :::: Bollywood Zone » Regional Movies » Regional Movies in Hindi
|- Dark Chocolate (2016) (Hindi DUB) WEB - HD Untouched 1080p Esub Hon3yHD


Dark Chocolate (2016) (Hindi DUB) WEB - HD Untouched 1080p Esub Hon3yHD

0 Members and 1 Guest are viewing this topic.

January 06, 2017, 04:50:08 PM
  • Global Moderator
  • Legend Member
  • *****
  • Topic Author
  • Thank You: 1487
  • Reputation: 330
  • Activity:
    33.4%
  • Country: in
  • Posts: 3022
  • Topics: 1910
  • Join Date: Dec 2013
  • ShareSpark Member
Torrable - One stop for all your download & upload needs. It's smart, easy and free.
   
Dark Chocolate (2016) (Hindi DUB) WEB - HD Untouched 1080p Esub Hon3yHD
   



Poster

   





















Format                                   : Matroska
File size                                : 2.63 GiB
Duration                                 : 1h 31mn
Overall bit rate                         : 4 122 Kbps

Video
ID                                       : 1
Format                                   : AVC
Format/Info                              : Advanced Video Codec
Format profile                           : [email protected]
Format settings, CABAC                   : Yes
Format settings, ReFrames                : 3 frames
Codec ID                                 : V_MPEG4/ISO/AVC
Duration                                 : 1h 31mn
Bit rate                                 : 3 993 Kbps
Width                                    : 1 920 pixels
Height                                   : 816 pixels
Display aspect ratio                     : 2.35:1
Frame rate mode                          : Constant
Frame rate                               : 24.000 fps
Stream size                              : 2.55 GiB (97%)

(Hindi DUB) Audio
ID                                       : 2
Format                                   : AAC
Format/Info                              : Advanced Audio Codec
Format profile                           : LC
Codec ID                                 : A_AAC
Duration                                 : 1h 31mn
Bit rate                                 : 127 Kbps
Channel(s)                               : 2 channels
Channel positions                        : Front: L R
Sampling rate                            : 44.1 KHz
Frame rate                               : 43.066 fps (1024 spf)
Compression mode                         : Lossy
Stream size                              : 83.2 MiB (3%)



All Credit Goes To Orignal Uploader







Subtitle



      






      
      


Movie



      










      
      

Share this topic on FacebookShare this topic on GoogleShare this topic on MySpaceShare this topic on TwitterShare this topic on Yahoo




Thanks given by:


January 06, 2017, 08:46:30 PM
Reply #1
  • Team SSX
  • Legend Member
  • ***
  • Thank You: 1204
  • Reputation: 163
  • Activity:
    100%
  • Country: in
  • Posts: 2199
  • Topics: 1578
  • Join Date: Sep 2016
  • (: EnJOy D LiFe :)

Tags:
 

Related Topics





Back to top