+ ShareSpark.net »  :::: Bollywood Zone » Regional Movies » Marathi Movies
|- And Jara Hatke 2016 Marathi 1080p Untouched WebHD x264 AAC 3.5GB [TMB]


And Jara Hatke 2016 Marathi 1080p Untouched WebHD x264 AAC 3.5GB [TMB]

0 Members and 1 Guest are viewing this topic.

January 05, 2017, 07:33:59 PM
  • Team SSX
  • Legend Member
  • ***
  • Topic Author
  • Thank You: 931
  • Reputation: 146
  • Activity:
    100%
  • Country: in
  • Posts: 1819
  • Topics: 1262
  • Join Date: Sep 2016
  • (: EnJOy ThE LiFe :)
Torrable - One stop for all your download & upload needs. It's smart, easy and free.
:title:
And Jara Hatke 2016 1080p Untouched WebHD x264 AAC [TMB]




 :info:

General
Complete name : & Jara Hatke 2016 1080p Untouched WebHD x264 AAC [TMB].mp4
Format : MPEG-4
Format profile : Base Media
Codec ID : isom (isom/iso2/avc1/mp41)
File size : 3.51 GiB
Duration : 1 h 50 min
Overall bit rate mode : Variable
Overall bit rate : 4 567 kb/s
Writing application : Lavf56.40.101

Video
Format : AVC
Format/Info : Advanced Video Codec
Format profile : [email protected]
Format settings, CABAC : Yes
Format settings, ReFrames : 1 frame
Format settings, GOP : M=1, N=25
Codec ID : avc1
Codec ID/Info : Advanced Video Coding
Duration : 1 h 50 min
Bit rate mode : Constant
Bit rate : 4 500 kb/s
Width : 1 920 pixels
Height : 1 080 pixels
Display aspect ratio : 16:9
Frame rate mode : Constant
Frame rate : 25.000 FPS
Color space : YUV
Chroma subsampling : 40
Bit depth : 8 bits
Scan type : Progressive
Bits/(Pixel*Frame) : 0.087
Stream size : 3.46 GiB (99%)

Audio
Format : AAC
Format/Info : Advanced Audio Codec
Format profile : LC
Codec ID : 40
Duration : 1 h 50 min
Bit rate mode : Variable
Bit rate : 61.4 kb/s
Maximum bit rate : 63.8 kb/s
Channel(s) : 2 channels
Channel positions : Front: L R
Sampling rate : 48.0 kHz
Frame rate : 46.875 FPS (1024 spf)
Compression mode : Lossy
Stream size : 48.4 MiB (1%)


ALL CREDIT GOES TO SAKET [TMB]

 :ss:

















CLICK IMAGE TO ENLARGE

 :download:



Google Drive :



Share this topic on FacebookShare this topic on GoogleShare this topic on MySpaceShare this topic on TwitterShare this topic on Yahoo

« Last Edit: January 05, 2017, 07:43:58 PM by PSYCHO »


Thanks given by:


January 06, 2017, 12:05:07 AM
Reply #1
  • Begginer
  • **
  • Thank You: 0
  • Reputation: 0
  • Activity:
    11.8%
  • Country: in
  • Posts: 61
  • Topics: 2
  • Join Date: Jun 2016
  • ShareSpark Member

Tags:
 

Related Topics

  Subject / Started by Replies Last post
4 Replies
979 Views
Last post January 26, 2016, 02:13:35 PM
by fzkhn668
6 Replies
692 Views
Last post February 18, 2017, 06:05:02 PM
by PSYCHO
1 Replies
259 Views
Last post February 18, 2017, 06:04:07 PM
by PSYCHO
1 Replies
289 Views
Last post February 18, 2017, 11:35:47 PM
by PSYCHO
0 Replies
94 Views
Last post February 18, 2017, 11:30:22 PM
by saskay




Back to top