+ ShareSpark.net »  :::: Bollywood Zone » Regional Movies » Marathi Movies
|- And Jara Hatke 2016 Marathi 1080p WebHDRip x264 AAC 2.45GB [TMB]


And Jara Hatke 2016 Marathi 1080p WebHDRip x264 AAC 2.45GB [TMB]

0 Members and 1 Guest are viewing this topic.

January 05, 2017, 02:44:20 PM
  • Team SSX
  • Legend Member
  • ***
  • Topic Author
  • Thank You: 1286
  • Reputation: 172
  • Activity:
    100%
  • Country: in
  • Posts: 2457
  • Topics: 1786
  • Join Date: Sep 2016
  • (: EnJOy D LiFe :)
Torrable - One stop for all your download & upload needs. It's smart, easy and free.
:title:
And Jara Hatke 2016 1080p WebHDRip x264 AAC [TMB]



 :info:

General
Complete name : & Jara Hatke 2016 1080p WebHDRip x264 AAC [TMB].mp4
Format : MPEG-4
Format profile : Base Media / Version 2
Codec ID : mp42 (isom/iso2/avc1/mp41)
File size : 2.45 GiB
Duration : 1 h 50 min
Overall bit rate mode : Variable
Overall bit rate : 3 183 kb/s

Video
Format : AVC
Format/Info : Advanced Video Codec
Format profile : [email protected]
Format settings, CABAC : Yes
Format settings, ReFrames : 4 frames
Codec ID : avc1
Codec ID/Info : Advanced Video Coding
Duration : 1 h 50 min
Bit rate : 3 011 kb/s
Width : 1 980 pixels
Height : 846 pixels
Display aspect ratio : 2.35:1
Original display aspect rat : 2.35:1
Frame rate mode : Variable
Frame rate : 24.948 FPS
Minimum frame rate : 14.286 FPS
Maximum frame rate : 25.000 FPS
Color space : YUV
Chroma subsampling : 40
Bit depth : 8 bits
Scan type : Progressive
Bits/(Pixel*Frame) : 0.072
Stream size : 2.32 GiB (95%)

Audio
Format : AAC
Format/Info : Advanced Audio Codec
Format profile : LC
Codec ID : 40
Duration : 1 h 50 min
Bit rate mode : Variable
Bit rate : 162 kb/s
Channel(s) : 2 channels
Channel positions : Front: L R
Sampling rate : 48.0 kHz
Frame rate : 46.875 FPS (1024 spf)
Compression mode : Lossy
Stream size : 128 MiB (5%)

Source 1080p Untouched [email protected]@TMB

Ripper : Saket


 :ss:















CLICK IMAGE TO ENLARGE

 :download:








Share this topic on FacebookShare this topic on GoogleShare this topic on MySpaceShare this topic on TwitterShare this topic on Yahoo

« Last Edit: February 18, 2017, 11:34:57 PM by PSYCHO »


Thanks given by:


February 18, 2017, 11:35:47 PM
Reply #1
  • Team SSX
  • Legend Member
  • ***
  • Topic Author
  • Thank You: 1286
  • Reputation: 172
  • Activity:
    100%
  • Country: in
  • Posts: 2457
  • Topics: 1786
  • Join Date: Sep 2016
  • (: EnJOy D LiFe :)

Tags:
 

Related Topics

  Subject / Started by Replies Last post
6 Replies
857 Views
Last post February 18, 2017, 06:05:02 PM
by PSYCHO
1 Replies
355 Views
Last post February 18, 2017, 06:04:07 PM
by PSYCHO
1 Replies
488 Views
Last post January 06, 2017, 12:05:07 AM
by vish790
1 Replies
370 Views
Last post January 09, 2017, 11:12:15 PM
by proyer
0 Replies
145 Views
Last post February 18, 2017, 11:30:22 PM
by saskay




Back to top