+ ShareSpark.net »  :::: Bollywood Zone » Regional Movies » Marathi Movies
|- And Jara Hatke 2016 Marathi 720p WebHDRip x264 AAC 1.47GB [TMB]


And Jara Hatke 2016 Marathi 720p WebHDRip x264 AAC 1.47GB [TMB]

0 Members and 1 Guest are viewing this topic.

January 05, 2017, 02:40:34 PM
  • Team SSX
  • Legend Member
  • ***
  • Topic Author
  • Thank You: 1343
  • Reputation: 180
  • Activity:
    100%
  • Country: in
  • Posts: 2499
  • Topics: 1822
  • Join Date: Sep 2016
  • (: EnJOy D LiFe :)
:title:
And Jara Hatke 2016 720p WebHDRip x264 AAC [TMB]



 :info:

General
Complete name : & Jara Hatke 2016 720p WebHDRip x264 AAC [TMB].mp4
Format : MPEG-4
Format profile : Base Media / Version 2
Codec ID : mp42 (isom/iso2/avc1/mp41)
File size : 1.47 GiB
Duration : 1 h 50 min
Overall bit rate mode : Variable
Overall bit rate : 1 912 kb/s

Video
Format : AVC
Format/Info : Advanced Video Codec
Format profile : [email protected]
Format settings, CABAC : Yes
Format settings, ReFrames : 4 frames
Codec ID : avc1
Codec ID/Info : Advanced Video Coding
Duration : 1 h 50 min
Bit rate : 1 742 kb/s
Width : 1 280 pixels
Height : 548 pixels
Display aspect ratio : 2.35:1
Original display aspect rat : 2.35:1
Frame rate mode : Variable
Frame rate : 24.948 FPS
Minimum frame rate : 14.286 FPS
Maximum frame rate : 25.000 FPS
Color space : YUV
Chroma subsampling : 40
Bit depth : 8 bits
Scan type : Progressive
Bits/(Pixel*Frame) : 0.100
Stream size : 1.34 GiB (91%)

Audio
Format : AAC
Format/Info : Advanced Audio Codec
Format profile : LC
Codec ID : 40
Duration : 1 h 50 min
Bit rate mode : Variable
Bit rate : 162 kb/s
Channel(s) : 2 channels
Channel positions : Front: L R
Sampling rate : 48.0 kHz
Frame rate : 46.875 FPS (1024 spf)
Compression mode : Lossy
Stream size : 128 MiB (8%)

Source 1080p Untouched [email protected]@TMB

Ripper : Saket


 :ss:













CLICK IMAGE TO ENLARGE

 :download:














Share this topic on FacebookShare this topic on GoogleShare this topic on MySpaceShare this topic on TwitterShare this topic on Yahoo

« Last Edit: February 18, 2017, 06:03:23 PM by PSYCHO »


Thanks given by:


February 18, 2017, 06:04:07 PM
Reply #1
  • Team SSX
  • Legend Member
  • ***
  • Topic Author
  • Thank You: 1343
  • Reputation: 180
  • Activity:
    100%
  • Country: in
  • Posts: 2499
  • Topics: 1822
  • Join Date: Sep 2016
  • (: EnJOy D LiFe :)

Tags:
 

Related Topics

  Subject / Started by Replies Last post
6 Replies
903 Views
Last post February 18, 2017, 06:05:02 PM
by PSYCHO
1 Replies
410 Views
Last post February 18, 2017, 11:35:47 PM
by PSYCHO
1 Replies
524 Views
Last post January 06, 2017, 12:05:07 AM
by vish790
0 Replies
166 Views
Last post February 18, 2017, 11:30:22 PM
by saskay
0 Replies
377 Views
Last post March 19, 2017, 01:43:07 PM
by PSYCHO




Back to top