+ ShareSpark.net »  :::: Bollywood Zone » Regional Movies » Marathi Movies
|- And Jara Hatke 2016 Marathi 1CD WebRip x264 AAC [TMB] 706MB


And Jara Hatke 2016 Marathi 1CD WebRip x264 AAC [TMB] 706MB

0 Members and 1 Guest are viewing this topic.

January 05, 2017, 02:35:44 PM
  • Addic7ed
  • Legend Member
  • ****
  • Topic Author
  • Thank You: 1535
  • Reputation: 199
  • Activity:
    78.8%
  • Country: in
  • Posts: 2889
  • Topics: 2143
  • Join Date: Sep 2016
  • (: EnJOy D LiFe :)
:title:
And Jara Hatke 2016 1CD WebRip x264 AAC [TMB]



 :info:

General
Complete name : & Jara Hatke 2016 1CD WebRip x264 AAC [TMB].mp4
Format : MPEG-4
Format profile : Base Media / Version 2
Codec ID : mp42 (isom/iso2/avc1/mp41)
File size : 706 MiB
Duration : 1 h 50 min
Overall bit rate mode : Variable
Overall bit rate : 896 kb/s

Video
Format : AVC
Format/Info : Advanced Video Codec
Format profile : [email protected]
Format settings, CABAC : Yes
Format settings, ReFrames : 4 frames
Codec ID : avc1
Codec ID/Info : Advanced Video Coding
Duration : 1 h 50 min
Bit rate : 727 kb/s
Width : 720 pixels
Height : 308 pixels
Display aspect ratio : 2.35:1
Original display aspect rat : 2.35:1
Frame rate mode : Variable
Frame rate : 24.948 FPS
Minimum frame rate : 14.286 FPS
Maximum frame rate : 25.000 FPS
Color space : YUV
Chroma subsampling : 40
Bit depth : 8 bits
Scan type : Progressive
Bits/(Pixel*Frame) : 0.131
Stream size : 573 MiB (81%)

Audio
Format : AAC
Format/Info : Advanced Audio Codec
Format profile : LC
Codec ID : 40
Duration : 1 h 50 min
Bit rate mode : Variable
Bit rate : 162 kb/s
Channel(s) : 2 channels
Channel positions : Front: L R
Sampling rate : 48.0 kHz
Frame rate : 46.875 FPS (1024 spf)
Compression mode : Lossy
Stream size : 128 MiB (18%)

Source 1080p Untouched [email protected]@TMB

Ripper : Saket


 :ss:













 :download:
















Share this topic on FacebookShare this topic on GoogleShare this topic on MySpaceShare this topic on TwitterShare this topic on Yahoo

« Last Edit: February 18, 2017, 06:04:39 PM by PSYCHO »


Thanks given by:


January 05, 2017, 11:43:31 PM
Reply #1
  • Begginer
  • **
  • Thank You: 0
  • Reputation: 1
  • Activity:
    2%
  • Country: in
  • Posts: 57
  • Topics: 0
  • Join Date: Nov 2016
  • ShareSpark Member
Thanks for uploading 706mb rip.......Thank You!

January 06, 2017, 10:22:47 PM
Reply #2
  • Begginer
  • **
  • Thank You: 0
  • Reputation: 1
  • Activity:
    2%
  • Country: in
  • Posts: 57
  • Topics: 0
  • Join Date: Nov 2016
  • ShareSpark Member

January 06, 2017, 10:43:21 PM
Reply #3
  • Addic7ed
  • Legend Member
  • ****
  • Topic Author
  • Thank You: 1535
  • Reputation: 199
  • Activity:
    78.8%
  • Country: in
  • Posts: 2889
  • Topics: 2143
  • Join Date: Sep 2016
  • (: EnJOy D LiFe :)
link is not working mitra

Working Properly Bro ...

GD Link Varun Kar Download ADD Keli Tujhyasathi...

January 07, 2017, 12:03:34 AM
Reply #4
  • Begginer
  • **
  • Thank You: 0
  • Reputation: 1
  • Activity:
    2%
  • Country: in
  • Posts: 57
  • Topics: 0
  • Join Date: Nov 2016
  • ShareSpark Member
Thanks yaar......Gd link work hote aahe.....Thanks for ur effort

January 08, 2017, 08:01:47 AM
Reply #5
  • Hero Member
  • ***
  • Thank You: 72
  • Reputation: 5
  • Activity:
    0%
  • Country: in
  • Posts: 317
  • Topics: 142
  • Join Date: Dec 2016
  • ShareSpark Member

February 18, 2017, 06:05:02 PM
Reply #6
  • Addic7ed
  • Legend Member
  • ****
  • Topic Author
  • Thank You: 1535
  • Reputation: 199
  • Activity:
    78.8%
  • Country: in
  • Posts: 2889
  • Topics: 2143
  • Join Date: Sep 2016
  • (: EnJOy D LiFe :)

Tags:
 

Related Topics

  Subject / Started by Replies Last post
0 Replies
205 Views
Last post December 24, 2016, 02:43:15 PM
by PSYCHO
1 Replies
478 Views
Last post February 18, 2017, 06:04:07 PM
by PSYCHO
1 Replies
493 Views
Last post February 18, 2017, 11:35:47 PM
by PSYCHO
1 Replies
644 Views
Last post January 06, 2017, 12:05:07 AM
by vish790
0 Replies
219 Views
Last post February 18, 2017, 11:30:22 PM
by saskay




Back to top