+ ShareSpark.net »  :::: Bollywood Zone » Indian PC Videos
|- Ae Dil Hai Mushkil (2016) (Music.Videos) Untouched - BluRay - AVC - TrueHD 5.1 - ESuBS - Hon3yHD


Ae Dil Hai Mushkil (2016) (Music.Videos) Untouched - BluRay - AVC - TrueHD 5.1 - ESuBS - Hon3yHD

0 Members and 1 Guest are viewing this topic.

January 04, 2017, 07:59:45 AM
  • Global Moderator
  • Legend Member
  • *****
  • Topic Author
  • Thank You: 1422
  • Reputation: 311
  • Activity:
    27.2%
  • Country: in
  • Posts: 2921
  • Topics: 1870
  • Join Date: Dec 2013
  • ShareSpark Member
Torrable - One stop for all your download & upload needs. It's smart, easy and free.

Ae Dil Hai Mushkil (2016) (Music.Videos) Untouched - BluRay - AVC - TrueHD 5.1 - ESuBS - Hon3yHD



Poster

   






















Ae Dil Hai Mushkil.m2ts



Format                      : BDAV
Format/Info                 : Blu-ray Video
File size                   : 1.33 GiB
Duration                    : 4 min 56 s
Overall bit rate mode       : Variable
Overall bit rate            : 38.7 Mb/s
Maximum Overall bit rate    : 35.5 Mb/s

Video
ID                          : 4113 (0x1011)
Menu ID                     : 1 (0x1)
Format                      : AVC
Format/Info                 : Advanced Video Codec
Format profile              : [email protected]
Format settings, CABAC      : Yes
Format settings, ReFrames   : 4 frames
Codec ID                    : 27
Duration                    : 4 min 55 s
Bit rate mode               : Variable
Bit rate                    : 35.8 Mb/s
Maximum bit rate            : 35.0 Mb/s
Width                       : 1 920 pixels
Height                      : 1 080 pixels
Display aspect ratio        : 16:9
Frame rate                  : 24.000 FPS
Standard                    : NTSC
Color space                 : YUV
Chroma subsampling          : 4:2:0
Bit depth                   : 8 bits
Scan type                   : Progressive
Bits/(Pixel*Frame)          : 0.720
Stream size                 : 1.23 GiB (93%)
Color range                 : Limited
Color primaries             : BT.709
Transfer characteristics    : BT.709
Matrix coefficients         : BT.709

Audio #1
ID                          : 4352 (0x1100)
Menu ID                     : 1 (0x1)
Format                      : TrueHD / AC-3
Mode extension              : CM (complete main)
Format settings, Endianness : Big
Muxing mode                 : Stream extension
Codec ID                    : 131
Duration                    : 4 min 55 s
Bit rate mode               : Variable / Constant
Bit rate                    : 640 kb/s
Maximum bit rate            : 3 093 kb/s
Channel(s)                  : 6 channels
Channel positions           : Front: L C R, Side: L R, LFE
Sampling rate               : 48.0 kHz
Frame rate                  : 31.250 FPS (1536 spf)
Bit depth                   : 16 bits
Delay relative to video     : -42 ms
Stream size                 : 22.6 MiB (2%)
Language                    : Hindi

Audio #2
ID                          : 4353 (0x1101)
Menu ID                     : 1 (0x1)
Format                      : AC-3
Format/Info                 : Audio Coding 3
Mode extension              : CM (complete main)
Format settings, Endianness : Big
Codec ID                    : 129
Duration                    : 4 min 55 s
Bit rate mode               : Constant
Bit rate                    : 640 kb/s
Channel(s)                  : 6 channels
Channel positions           : Front: L C R, Side: L R, LFE
Sampling rate               : 48.0 kHz
Frame rate                  : 31.250 FPS (1536 spf)
Bit depth                   : 16 bits
Compression mode            : Lossy
Delay relative to video     : -42 ms
Stream size                 : 22.6 MiB (2%)
Language                    : Hindi

Text
ID                          : 4608 (0x1200)
Menu ID                     : 1 (0x1)
Format                      : PGS
Codec ID                    : 144
Language                    : English




:Song Lists:








All Credit Goes To Orignal Uploader









Part 1


      








Part 2


      




      




Part 3


      








      

Share this topic on FacebookShare this topic on GoogleShare this topic on MySpaceShare this topic on TwitterShare this topic on Yahoo

« Last Edit: January 04, 2017, 08:03:47 AM by тнє ωαll 81317 »



Thanks given by:


January 04, 2017, 01:13:06 PM
Reply #1
  • -= Enjoy Your Life =-
  • Junior Mod (Inactive)
  • Elite Forces
  • ***
  • Thank You: 350
  • Reputation: 239
  • Activity:
    1%
  • Country: in
  • Posts: 1191
  • Topics: 206
  • Join Date: Feb 2013
  • =$ Success Never Ends $=

January 04, 2017, 04:55:17 PM
Reply #2
  • Global Moderator
  • Legend Member
  • *****
  • Topic Author
  • Thank You: 1422
  • Reputation: 311
  • Activity:
    27.2%
  • Country: in
  • Posts: 2921
  • Topics: 1870
  • Join Date: Dec 2013
  • ShareSpark Member
« Last Edit: January 04, 2017, 04:56:22 PM by тнє ωαll 81317 »


January 04, 2017, 05:27:23 PM
Reply #3
  • Elite Member
  • ***
  • Thank You: 457
  • Reputation: 154
  • Activity:
    44.8%
  • Country: bd
  • Posts: 411
  • Topics: 105
  • Join Date: Feb 2013
  • ShareSpark Member

January 05, 2017, 11:58:23 AM
Reply #4
  • -= Enjoy Your Life =-
  • Junior Mod (Inactive)
  • Elite Forces
  • ***
  • Thank You: 350
  • Reputation: 239
  • Activity:
    1%
  • Country: in
  • Posts: 1191
  • Topics: 206
  • Join Date: Feb 2013
  • =$ Success Never Ends $=

Tags:
 

Related Topics





Back to top