+ ShareSpark.net »  :::: Bollywood Zone » Indian TV Shows
|- Bigg Boss Non Stop New Year Dhamaka [Season 10] ( Episode 77) 31st Dec 2016 720p x264 AAC 1.1GB


100% Bill Offer

Bigg Boss Non Stop New Year Dhamaka [Season 10] ( Episode 77) 31st Dec 2016 720p x264 AAC 1.1GB

0 Members and 1 Guest are viewing this topic.

January 01, 2017, 07:45:06 PM
  • Begginer
  • **
  • Topic Author
  • Thank You: 8
  • Reputation: 3
  • Activity:
    0%
  • Country: in
  • Posts: 60
  • Topics: 14
  • Join Date: Oct 2014
  • ShareSpark Member


:info:


Format                                   : Matroska
Format version                           : Version 4 / Version 2
File size                                : 1.14 GiB
Duration                                 : 1 h 48 min
Overall bit rate                         : 1 511 kb/s
Encoded date                             : UTC 2017-01-01 11:53:20
Writing application                      : mkvmerge v7.0.0 ('Where We Going') 64bit built on Jun  9 2014 15:16:27
Writing library                          : libebml v1.3.0 + libmatroska v1.4.1

Video
ID                                       : 1
Format                                   : AVC
Format/Info                              : Advanced Video Codec
Format profile                           : [email protected]
Format settings, CABAC                   : Yes
Format settings, ReFrames                : 4 frames
Codec ID                                 : V_MPEG4/ISO/AVC
Duration                                 : 1 h 48 min
Bit rate                                 : 1 381 kb/s
Nominal bit rate                         : 1 500 kb/s
Width                                    : 1 280 pixels
Height                                   : 720 pixels
Display aspect ratio                     : 16:9
Frame rate mode                          : Constant
Frame rate                               : 25.000 FPS
Color space                              : YUV
Chroma subsampling                       : 4:2:0
Bit depth                                : 8 bits
Scan type                                : Progressive
Bits/(Pixel*Frame)                       : 0.060
Stream size                              : 1.04 GiB (91%)
Default                                  : Yes
Forced                                   : No

Audio
ID                                       : 2
Format                                   : AAC
Format/Info                              : Advanced Audio Codec
Format profile                           : LC
Codec ID                                 : A_AAC
Duration                                 : 1 h 48 min
Bit rate                                 : 128 kb/s
Channel(s)                               : 2 channels
Channel positions                        : Front: L R
Sampling rate                            : 44.1 kHz
Frame rate                               : 43.066 FPS (1024 spf)
Compression mode                         : Lossy
Delay relative to video                  : -80 ms
Stream size                              : 99.1 MiB (8%)
Default                                  : Yes
Forced                                   : No


:ss:











:download:



Share this topic on FacebookShare this topic on GoogleShare this topic on MySpaceShare this topic on TwitterShare this topic on Yahoo



Thanks given by:


Tags:
 

Related Topics

  Subject / Started by Replies Last post
1 Replies
1059 Views
Last post November 01, 2016, 01:06:24 AM
by jazzygujjar
0 Replies
774 Views
Last post December 01, 2016, 12:37:22 AM
by shahana
0 Replies
713 Views
Last post December 06, 2016, 09:47:24 AM
by shahana
0 Replies
664 Views
Last post December 10, 2016, 12:58:09 AM
by shahana
0 Replies
804 Views
Last post December 13, 2016, 02:57:54 AM
by Serecomputing




Back to top