+ ShareSpark.net »  :::: Bollywood Zone » Regional Movies » Regional Movies in Hindi
|- 24 (2016) 1080p HD-Rip Dual Audio Hindi-Tamil E-Sub [XMR] - 2.0 GB


24 (2016) 1080p HD-Rip Dual Audio Hindi-Tamil E-Sub [XMR] - 2.0 GB

0 Members and 1 Guest are viewing this topic.

January 01, 2017, 11:28:57 AM
  • Addic7ed
  • Elite Forces
  • ****
  • Topic Author
  • Thank You: 1179
  • Reputation: 216
  • Activity:
    100%
  • Country: in
  • Posts: 1158
  • Topics: 979
  • Join Date: Jan 2014
  • ShareSpark Member
Torrable - One stop for all your download & upload needs. It's smart, easy and free.


24 (2016) 1080p HD-Rip Dual Audio Hindi-Tamil E-Sub [XMR] - 2.0 GB

Format                      : Matroska
Format version              : Version 2
File size                   : 2.02 GiB
Duration                    : 2 h 43 min
Overall bit rate            : 1 764 kb/s
Encoded date                : UTC 2017-01-01 04:28:26
Writing application         : mkvmerge v8.5.2 ('Crosses') 32bit
Writing library             : libebml v1.3.3 + libmatroska v1.4.4
Cover                       : Yes

Video
ID                          : 1
Format                      : AVC
Format/Info                 : Advanced Video Codec
Format profile              : [email protected]
Format settings, CABAC      : Yes
Format settings, ReFrames   : 4 frames
Codec ID                    : V_MPEG4/ISO/AVC
Duration                    : 2 h 43 min
Bit rate                    : 1 442 kb/s
Width                       : 1 920 pixels
Height                      : 808 pixels
Display aspect ratio        : 2.40:1
Frame rate mode             : Constant
Frame rate                  : 24.000 FPS
Color space                 : YUV
Chroma subsampling          : 4:2:0
Bit depth                   : 8 bits
Scan type                   : Progressive
Bits/(Pixel*Frame)          : 0.039
Stream size                 : 1.65 GiB (82%)
Title                       : [email protected]

Audio #1
ID                          : 2
Format                      : AC-3
Format/Info                 : Audio Coding 3
Format profile              : Dolby Digital
Mode extension              : CM (complete main)
Format settings, Endianness : Big
Codec ID                    : A_AC3
Duration                    : 2 h 43 min
Bit rate mode               : Constant
Bit rate                    : 192 kb/s
Channel(s)                  : 2 channels
Channel positions           : Front: L R
Sampling rate               : 48.0 kHz
Frame rate                  : 31.250 FPS (1536 spf)
Bit depth                   : 16 bits
Compression mode            : Lossy
Stream size                 : 225 MiB (11%)
Title                       : [email protected]
Language                    : Hindi

Audio #2
ID                          : 3
Format                      : AC-3
Format/Info                 : Audio Coding 3
Mode extension              : CM (complete main)
Format settings, Endianness : Big
Codec ID                    : A_AC3
Duration                    : 2 h 43 min
Bit rate mode               : Constant
Bit rate                    : 128 kb/s
Channel(s)                  : 2 channels
Channel positions           : Front: L R
Sampling rate               : 44.1 kHz
Frame rate                  : 28.711 FPS (1536 spf)
Bit depth                   : 16 bits
Compression mode            : Lossy
Stream size                 : 150 MiB (7%)
Title                       : [email protected]
Language                    : Tamil

Text
ID                          : 4
Format                      : UTF-8
Codec ID                    : S_TEXT/UTF8
Codec ID/Info               : UTF-8 Plain Text
Duration                    : 2 h 41 min
Bit rate                    : 50 b/s
Count of elements           : 2362
Stream size                 : 59.5 KiB (0%)
Title                       : English
Language                    : English













Don't walk as you are king, walk as you don't care who the king is....!!
Never argue with an idiot. They drag you down to their level and then beat you with experience?

Share this topic on FacebookShare this topic on GoogleShare this topic on MySpaceShare this topic on TwitterShare this topic on Yahoo




Don't walk as you are king, walk as you don't care who the king is....!!

Tags:
 

Related Topics





Back to top