+ ShareSpark.net »  :::: Bollywood Zone » Indian TV Shows
|- Star Screen Awards (2016) Untouched 1080p WEB-DL x264 AAC - Hon3yHD


Star Screen Awards (2016) Untouched 1080p WEB-DL x264 AAC - Hon3yHD

0 Members and 1 Guest are viewing this topic.

January 01, 2017, 09:11:21 AM
  • Legend
  • Legend Member
  • ***
  • Topic Author
  • Thank You: 1574
  • Reputation: 342
  • Activity:
    21.4%
  • Country: in
  • Posts: 3206
  • Topics: 1962
  • Join Date: Dec 2013
  • ShareSpark Member
   
Star Screen Awards (2016) Untouched 1080p WEB-DL x264 AAC - Hon3yHD



Poster





















Format                                   : Matroska
Format version                           : Version 4 / Version 2
File size                                : 4.79 GiB
Duration                                 : 2h 34mn
Overall bit rate                         : 4 429 Kbps


Video
ID                                       : 1
Format                                   : AVC
Format/Info                              : Advanced Video Codec
Format profile                           : [email protected]
Format settings, CABAC                   : Yes
Format settings, ReFrames                : 1 frame
Format settings, GOP                     : M=1, N=25
Codec ID                                 : V_MPEG4/ISO/AVC
Duration                                 : 2h 34mn
Bit rate mode                            : Constant
Bit rate                                 : 4 500 Kbps
Width                                    : 1 920 pixels
Height                                   : 1 080 pixels
Display aspect ratio                     : 16:9
Frame rate mode                          : Constant
Frame rate                               : 25.000 fps
Color space                              : YUV
Chroma subsampling                       : 4:2:0
Bit depth                                : 8 bits
Scan type                                : Progressive
Bits/(Pixel*Frame)                       : 0.087
Stream size                              : 4.72 GiB (99%)
Default                                  : Yes
Forced                                   : No

Audio
ID                                       : 2
Format                                   : AAC
Format/Info                              : Advanced Audio Codec
Format profile                           : LC
Codec ID                                 : A_AAC
Duration                                 : 2h 34mn
Bit rate                                 : 61.4 Kbps
Channel(s)                               : 2 channels
Channel positions                        : Front: L R
Sampling rate                            : 48.0 KHz
Frame rate                               : 46.875 fps (1024 spf)
Compression mode                         : Lossy
Stream size                              : 67.9 MiB (1%)
Default                                  : Yes
Forced                                   : No



All Credit Goes To Orignal Uploader



Main Event



      










      
      


Party OF Sultan



      














      
      

Share this topic on FacebookShare this topic on GoogleShare this topic on MySpaceShare this topic on TwitterShare this topic on Yahoo

« Last Edit: January 01, 2017, 10:13:01 AM by тнє ωαll 81317 »



Thanks given by:


January 01, 2017, 10:56:31 AM
Reply #1
  • Elite Member
  • ***
  • Thank You: 481
  • Reputation: 167
  • Activity:
    0%
  • Country: bd
  • Posts: 411
  • Topics: 105
  • Join Date: Feb 2013
  • ShareSpark Member

Tags:
 

Related Topics

  Subject / Started by Replies Last post
0 Replies
550 Views
Last post January 11, 2016, 07:54:13 AM
by abcxyz1
0 Replies
485 Views
Last post January 18, 2016, 06:15:56 AM
by abcxyz1
6 Replies
1299 Views
Last post January 26, 2016, 07:08:19 AM
by sughrasafder
2 Replies
1054 Views
Last post January 08, 2017, 02:38:55 PM
by sme_sarkar
0 Replies
619 Views
Last post January 01, 2017, 03:30:34 PM
by waseemrajasaifi




Back to top