+ ShareSpark.net »  :::: Bollywood Zone » Bollywood Movies (Original Rips) » High Resolution Movies
|- M.S.DHONI (2016) Multi HQ1080p Blu-Ray x264 DTSHD-MA + AC3 ESub - DDR


M.S.DHONI (2016) Multi HQ1080p Blu-Ray x264 DTSHD-MA + AC3 ESub - DDR

0 Members and 1 Guest are viewing this topic.

December 31, 2016, 05:43:30 PM
  • Begginer
  • **
  • Topic Author
  • Thank You: 23
  • Reputation: -3
  • Activity:
    0%
  • Posts: 97
  • Topics: 99
  • Join Date: Jun 2012
  • ShareSpark Member




Code: [Select]
Format : Matroska
File size : 19.7 GiB
Duration : 3 h 4 min
Overall bit rate : 15.2 Mb/s

Video
Format : AVC
Format/Info : Advanced Video Codec
Format profile : [email protected]
Format settings, CABAC : Yes
Format settings, ReFrames : 5 frames
Codec ID : V_MPEG4/ISO/AVC
Duration : 3 h 4 min
Bit rate : 10 000 kb/s
Width : 1 920 pixels
Height : 800 pixels
Display aspect ratio : 2.40:1
Frame rate mode : Constant
Frame rate : 24.000 FPS
Color space : YUV
Chroma subsampling : 4:2:0
Bit depth : 8 bits
Scan type : Progressive
Bits/(Pixel*Frame) : 0.271
Stream size : 12.8 GiB (65%)
Default : Yes
Forced : No
Color range : Limited
Color primaries : BT.709
Transfer characteristics : BT.709
Matrix coefficients : BT.709

Audio #1
ID : 2
Format : DTS
Format/Info : Digital Theater Systems
Format profile : MA / Core
Mode : 16
Format settings, Endianness : Big
Codec ID : A_DTS
Duration : 3 h 4 min
Bit rate mode : Variable / Constant
Bit rate : 4 006 kb/s / 1 509 kb/s
Channel(s) : 6 channels
Channel positions : Front: L C R, Side: L R, LFE
Sampling rate : 48.0 kHz
Frame rate : 93.750 FPS (512 spf)
Bit depth : 24 bits
Compression mode : Lossless / Lossy
Stream size : 5.17 GiB (26%)
Language : Hindi
Default : Yes
Forced : No

Audio #2
ID : 4
Format : AC-3
Format/Info : Audio Coding 3
Mode extension : CM (complete main)
Format settings, Endianness : Big
Codec ID : A_AC3
Duration : 3 h 4 min
Bit rate mode : Constant
Bit rate : 640 kb/s
Channel(s) : 6 channels
Channel positions : Front: L C R, Side: L R, LFE
Sampling rate : 48.0 kHz
Frame rate : 31.250 FPS (1536 spf)
Compression mode : Lossy
Stream size : 845 MiB (4%)
Language : Tamil
Default : No
Forced : No

Audio #3
ID : 5
Format : AC-3
Format/Info : Audio Coding 3
Mode extension : CM (complete main)
Format settings, Endianness : Big
Codec ID : A_AC3
Duration : 3 h 4 min
Bit rate mode : Constant
Bit rate : 640 kb/s
Channel(s) : 6 channels
Channel positions : Front: L C R, Side: L R, LFE
Sampling rate : 48.0 kHz
Frame rate : 31.250 FPS (1536 spf)
Compression mode : Lossy
Stream size : 845 MiB (4%)
Language : Telugu
Default : No
Forced : No


Chapters : YES








Fed-up With Cheap file-host who come and gone We are Back With Bang 2017 Set For Big Releases We Start's the most anticipated, Bigger, Better, Stronger, Faster and Safe File-host


2GB LINKS


Code: [Select]
http://www.heroupload.com/77b80feab3b1dc58/M.S.DHONI.2016.Multi.HQ.1080p.Blu-Ray.x264.DTSHD-MA-AC3.ESub-DDR.mkv.001
http://www.heroupload.com/e445f222fadec83b/M.S.DHONI.2016.Multi.HQ.1080p.Blu-Ray.x264.DTSHD-MA-AC3.ESub-DDR.mkv.002
http://www.heroupload.com/686977e43fd044dc/M.S.DHONI.2016.Multi.HQ.1080p.Blu-Ray.x264.DTSHD-MA-AC3.ESub-DDR.mkv.003
http://www.heroupload.com/68306658246a21fe/M.S.DHONI.2016.Multi.HQ.1080p.Blu-Ray.x264.DTSHD-MA-AC3.ESub-DDR.mkv.004
http://www.heroupload.com/3339f604cf1b38fa/M.S.DHONI.2016.Multi.HQ.1080p.Blu-Ray.x264.DTSHD-MA-AC3.ESub-DDR.mkv.005
http://www.heroupload.com/7972d32f9ab679c7/M.S.DHONI.2016.Multi.HQ.1080p.Blu-Ray.x264.DTSHD-MA-AC3.ESub-DDR.mkv.006
http://www.heroupload.com/fc7f11421469600f/M.S.DHONI.2016.Multi.HQ.1080p.Blu-Ray.x264.DTSHD-MA-AC3.ESub-DDR.mkv.007
http://www.heroupload.com/a91b5b8c53a8f89b/M.S.DHONI.2016.Multi.HQ.1080p.Blu-Ray.x264.DTSHD-MA-AC3.ESub-DDR.mkv.008
http://www.heroupload.com/d63989658b765302/M.S.DHONI.2016.Multi.HQ.1080p.Blu-Ray.x264.DTSHD-MA-AC3.ESub-DDR.mkv.009
http://www.heroupload.com/ae2aa94a0b0cfbfb/M.S.DHONI.2016.Multi.HQ.1080p.Blu-Ray.x264.DTSHD-MA-AC3.ESub-DDR.mkv.010


Share this topic on FacebookShare this topic on GoogleShare this topic on MySpaceShare this topic on TwitterShare this topic on Yahoo




Tags:
 

Related Topics





Back to top