+ ShareSpark.net »  :::: Bollywood Zone » Bollywood Movies (Original Rips) » High Resolution Movies
|- M.S. Dhoni (2016) - 1080p - BluRay - x264 - DTS - ESub - [DDR]


M.S. Dhoni (2016) - 1080p - BluRay - x264 - DTS - ESub - [DDR]

0 Members and 1 Guest are viewing this topic.

December 31, 2016, 03:34:30 PM
  • Begginer
  • **
  • Topic Author
  • Thank You: 23
  • Reputation: -3
  • Activity:
    0%
  • Posts: 97
  • Topics: 99
  • Join Date: Jun 2012
  • ShareSpark Member




Code: [Select]
General
Format : Matroska
Format version : Version 2
File size : 9.79 GiB
Duration : 3 h 4 min
Overall bit rate : 7 588 kb/s

Video
ID : 1
Format : AVC
Format/Info : Advanced Video Codec
Format profile : [email protected]
Format settings, CABAC : Yes
Format settings, ReFrames : 5 frames
Codec ID : V_MPEG4/ISO/AVC
Duration : 3 h 4 min
Bit rate : 6 000 kb/s
Width : 1 920 pixels
Height : 800 pixels
Display aspect ratio : 2.40:1
Frame rate mode : Constant
Frame rate : 24.000 FPS
Color space : YUV
Chroma subsampling : 4:2:0
Bit depth : 8 bits
Scan type : Progressive
Bits/(Pixel*Frame) : 0.163
Stream size : 7.82 GiB (80%)
Language : English
Default : Yes
Forced : No
Color range : Limited
Color primaries : BT.709
Transfer characteristics : BT.709
Matrix coefficients : BT.709

Audio
Format : DTS
Format/Info : Digital Theater Systems
Mode : 16
Format settings, Endianness : Big
Codec ID : A_DTS
Duration : 3 h 4 min
Bit rate mode : Constant
Bit rate : 1 509 kb/s
Channel(s) : 6 channels
Channel positions : Front: L C R, Side: L R, LFE
Sampling rate : 48.0 kHz
Frame rate : 93.750 FPS (512 spf)
Bit depth : 24 bits
Compression mode : Lossy
Stream size : 1.95 GiB (20%)
Title : DDR
Language : Hindi
Default : Yes
Forced : No

Chapters : Yes (muxed)
Subtitle(s) : English -srt (muxed)











Fed-up With Cheap file-host who come and gone We are Back With Bang 2017 Set For Big Releases We Start's the most anticipated, Bigger, Better, Stronger, Faster and Safe File-host


1GB LINKS


Code: [Select]
https://www.multiup.org/08e0abf5d8020cec8f1e179fec8c5db5







Share this topic on FacebookShare this topic on GoogleShare this topic on MySpaceShare this topic on TwitterShare this topic on Yahoo

« Last Edit: August 17, 2017, 10:06:36 AM by -Ð@Rk.ÐèVi£- »


Thanks given by:


January 01, 2017, 06:39:56 PM
Reply #1
  • Hero Member
  • ***
  • Thank You: 72
  • Reputation: 6
  • Activity:
    0%
  • Country: in
  • Posts: 317
  • Topics: 142
  • Join Date: Dec 2016
  • ShareSpark Member
it is showing "File has been removed by the site administrator"

August 17, 2017, 10:06:51 AM
Reply #2
  • *****************
  • Head Admin
  • Legend Member
  • *****
  • Thank You: 5357
  • Reputation: 2445
  • Activity:
    100%
  • Country: in
  • Posts: 17106
  • Topics: 10339
  • Join Date: Mar 2012
  • The Time Is Now......

Tags:
 

Related Topics





Back to top