+ ShareSpark.net »  :::: Bollywood Zone » Bollywood Movies (Pre Releases)
|- Dangal (2016) 1GB x264 DesiPDvD AAC 2.0 Line-Audio - DDR


Dangal (2016) 1GB x264 DesiPDvD AAC 2.0 Line-Audio - DDR

0 Members and 1 Guest are viewing this topic.

December 31, 2016, 01:21:21 AM
  • *****************
  • Head Admin
  • Legend Member
  • *****
  • Topic Author
  • Thank You: 4926
  • Reputation: 2377
  • Activity:
    100%
  • Country: in
  • Posts: 16555
  • Topics: 10016
  • Join Date: Mar 2012
  • The Time Is Now......




SPECS

Source: DesiPDvD @ DUS Ka Ware house

Format : Matroska
File size : 1 021 MiB
Duration : 2 h 38 min
Overall bit rate : 899 kb/s

Video
ID : 1
Format : AVC
Format/Info : Advanced Video Codec
Format profile : [email protected]
Format settings, CABAC : Yes
Format settings, ReFrames : 16 frames
Codec ID : V_MPEG4/ISO/AVC
Duration : 2 h 38 min
Bit rate : 769 kb/s
Width : 720 pixels
Height : 288 pixels
Display aspect ratio : 2.500
Frame rate mode : Constant
Frame rate : 23.976 (24000/1001) FPS
Color space : YUV
Chroma subsampling : 4:2:0
Bit depth : 8 bits
Scan type : Progressive
Bits/(Pixel*Frame) : 0.155
Stream size : 873 MiB (86%)

Audio
ID : 2
Format : AAC
Format/Info : Advanced Audio Codec
Format profile : LC
Codec ID : A_AAC
Duration : 2 h 38 min
Bit rate : 128 kb/s
Channel(s) : 2 channels
Channel positions : Front: L R
Sampling rate : 48.0 kHz
Frame rate : 46.875 FPS (1024 spf)
Compression mode : Lossy
Delay relative to video : 9 ms
Stream size : 145 MiB (14%)
Language : Hindi
Default : Yes
Forced : No

Chapters : None on source



























Share this topic on FacebookShare this topic on GoogleShare this topic on MySpaceShare this topic on TwitterShare this topic on Yahoo




Tags:
 

Related Topics





Back to top