+ ShareSpark.net »  :::: Dubbed Zone (Dubbed English in Hindi) » English Movies Dubbed in Hindi » High Resolution Movies
|- Stealth [2005] BDRip 1080p Dual Audio [Hin 2Ch-Eng 5.1] Tariq Qureshi


Stealth [2005] BDRip 1080p Dual Audio [Hin 2Ch-Eng 5.1] Tariq Qureshi

0 Members and 1 Guest are viewing this topic.

December 29, 2016, 02:08:40 PM
  • Team SSX
  • Devoted Member
  • ***
  • Topic Author
  • Thank You: 59
  • Reputation: 11
  • Activity:
    6%
  • Country: in
  • Posts: 120
  • Topics: 108
  • Join Date: Oct 2016
  • Born To Live
Torrable - One stop for all your download & upload needs. It's smart, easy and free.
:title:

Stealth [2005] BDRip 1080p Dual Audio [Hin 2Ch-Eng 5.1] Tariq Qureshi




:info:

===========================================

General:
======================================
IMDB LINK :http://www.imdb.com/title/tt0382992/
Format : Matroska
Format version : Version 4 / Version 2
File size : 3.32 GiB
Duration : 2h 0mn
Overall bit rate : 3 937 Kbps
Encoded date : UTC 2013-11-11 11:51:18
Movie name : Stealth [2005] BDRip 1080p Dual Audio [Hin 2Ch-Eng 5.1] Tariq Qureshi.mkv

=======================================================================================
VIDEO:
=======================

ID : 1
Format : AVC
Format/Info : Advanced Video Codec
Format profile : [email protected]
Format settings, CABAC : Yes
Format settings, ReFrames : 16 frames
Codec ID : V_MPEG4/ISO/AVC
Duration : 2h 0mn
Bit rate : 3 300 Kbps
Width : 1 920 pixels
Height : 800 pixels
Display aspect ratio : 2.40:1
Frame rate mode : Constant
Frame rate : 23.976 fps
Language : English
Default : Yes
Forced : No
=====================================================================================
AUDIO:1
================
ID : 2
Format : AC-3
Format/Info : Audio Coding 3
Mode extension : CM (complete main)
Format settings, Endianness : Big
Codec ID : A_AC3
Duration : 2h 0mn
Bit rate mode : Constant
Bit rate : 448 Kbps
Channel(s) : 6 channels
Channel positions : Front: L C R, Side: L R, LFE
Sampling rate : 48.0 KHz
Bit depth : 16 bits
Compression mode : Lossy
Stream size : 387 MiB (11%)
Title : 5.1 Tariq Qureshi
Language : English
Default : No
Forced : No

===================================================================================
AUDIO:2
================
ID : 3
Format : AC-3
Format/Info : Audio Coding 3
Mode extension : CM (complete main)
Format settings, Endianness : Big
Codec ID : A_AC3
Duration : 2h 0mn
Bit rate mode : Constant
Bit rate : 192 Kbps
Channel(s) : 2 channels
Channel positions : Front: L R
Sampling rate : 48.0 KHz
Bit depth : 16 bits
Compression mode : Lossy
Stream size : 166 MiB (5%)
Title : 2Ch Tariq Qureshi
Language : Hindi
Default : Yes
Forced : No



:ss:







:sample:




:lang:




:download:

Share this topic on FacebookShare this topic on GoogleShare this topic on MySpaceShare this topic on TwitterShare this topic on Yahoo

« Last Edit: December 29, 2016, 02:09:41 PM by Abhisona »


Born To Live. So always Positive

Tags:
 

Related Topics





Back to top