+ ShareSpark.net »  :::: Bollywood Zone » Regional Movies » Marathi Movies
|-  Ticha Umbartha 2016 1CD WebRip x264 AAC [TMB]


Ticha Umbartha 2016 1CD WebRip x264 AAC [TMB]

0 Members and 1 Guest are viewing this topic.

December 28, 2016, 04:21:47 PM
  • *****************
  • Head Admin
  • Legend Member
  • *****
  • Topic Author
  • Thank You: 4408
  • Reputation: 2295
  • Activity:
    100%
  • Country: in
  • Posts: 15641
  • Topics: 9577
  • Join Date: Mar 2012
  • The Time Is Now......
Torrable - One stop for all your download & upload needs. It's smart, easy and free.




General
Complete name : Ticha Umbartha 2016 1CD WebRip x264 AAC [TMB].mp4
Format : MPEG-4
Format profile : Base Media / Version 2
Codec ID : mp42 (isom/iso2/avc1/mp41)
File size : 702 MiB
Duration : 1 h 57 min
Overall bit rate mode : Variable
Overall bit rate : 837 kb/s

Video
Format : AVC
Format/Info : Advanced Video Codec
Format profile : Main@L3
Format settings, CABAC : Yes
Format settings, ReFrames : 4 frames
Codec ID : avc1
Codec ID/Info : Advanced Video Coding
Duration : 1 h 57 min
Bit rate : 672 kb/s
Width : 720 pixels
Height : 306 pixels
Display aspect ratio : 2.35:1
Frame rate mode : Variable
Frame rate : 25.000 FPS
Minimum frame rate : 12.500 FPS
Maximum frame rate : 25.000 FPS
Color space : YUV
Chroma subsampling : 4:2:0
Bit depth : 8 bits
Scan type : Progressive
Bits/(Pixel*Frame) : 0.122
Stream size : 563 MiB (80%)

Audio
Format : AAC
Format/Info : Advanced Audio Codec
Format profile : LC
Codec ID : 40
Duration : 1 h 57 min
Bit rate mode : Variable
Bit rate : 160 kb/s
Channel(s) : 2 channels
Channel positions : Front: L R
Sampling rate : 48.0 kHz
Frame rate : 46.875 FPS (1024 spf)
Compression mode : Lossy
Stream size : 134 MiB (19%)






























Share this topic on FacebookShare this topic on GoogleShare this topic on MySpaceShare this topic on TwitterShare this topic on Yahoo



Thanks given by:


December 28, 2016, 09:52:01 PM
Reply #1
  • Semi Newbie
  • **
  • Thank You: 0
  • Reputation: 1
  • Activity:
    6.2%
  • Country: in
  • Posts: 31
  • Topics: 0
  • Join Date: Nov 2016
  • ShareSpark Member
702 mb........Thanks for the low size upload Bro......Please upload low file size rip of 1000 rupees note movie....Thanks
« Last Edit: December 28, 2016, 09:56:16 PM by proyer »

Tags:
 

Related Topics

  Subject / Started by Replies Last post
2 Replies
420 Views
Last post July 25, 2016, 10:47:04 AM
by sughrasafder
1 Replies
457 Views
Last post December 22, 2016, 05:45:55 PM
by sme_sarkar
2 Replies
252 Views
Last post December 26, 2016, 11:35:11 PM
by proyer
0 Replies
128 Views
Last post December 28, 2016, 01:39:22 PM
by -Ð@Rk.ÐèVi£-
0 Replies
144 Views
Last post December 28, 2016, 04:19:41 PM
by -Ð@Rk.ÐèVi£-




Back to top