+ ShareSpark.net »  :::: Bollywood Zone » Regional Movies » Marathi Movies
|- Ticha Umbartha 2016 720p WebHDRip x264 AAC [TMB]


Ticha Umbartha 2016 720p WebHDRip x264 AAC [TMB]

0 Members and 1 Guest are viewing this topic.

December 28, 2016, 04:19:41 PM
  • *****************
  • Head Admin
  • Legend Member
  • *****
  • Topic Author
  • Thank You: 4408
  • Reputation: 2295
  • Activity:
    100%
  • Country: in
  • Posts: 15641
  • Topics: 9577
  • Join Date: Mar 2012
  • The Time Is Now......
Torrable - One stop for all your download & upload needs. It's smart, easy and free.


General
Complete name : Ticha Umbartha 2016 720p WebHDRip x264 AAC [TMB].mp4
Format : MPEG-4
Format profile : Base Media / Version 2
Codec ID : mp42 (isom/iso2/avc1/mp41)
File size : 1.47 GiB
Duration : 1 h 57 min
Overall bit rate mode : Variable
Overall bit rate : 1 790 kb/s

Video
Format : AVC
Format/Info : Advanced Video Codec
Format profile : Main@L3.1
Format settings, CABAC : Yes
Format settings, ReFrames : 4 frames
Codec ID : avc1
Codec ID/Info : Advanced Video Coding
Duration : 1 h 57 min
Bit rate : 1 626 kb/s
Width : 1 280 pixels
Height : 544 pixels
Display aspect ratio : 2.35:1
Frame rate mode : Variable
Frame rate : 25.000 FPS
Minimum frame rate : 12.500 FPS
Maximum frame rate : 25.000 FPS
Color space : YUV
Chroma subsampling : 4:2:0
Bit depth : 8 bits
Scan type : Progressive
Bits/(Pixel*Frame) : 0.093
Stream size : 1.33 GiB (91%)

Audio
Format : AAC
Format/Info : Advanced Audio Codec
Format profile : LC
Codec ID : 40
Duration : 1 h 57 min
Bit rate mode : Variable
Bit rate : 160 kb/s
Channel(s) : 2 channels
Channel positions : Front: L R
Sampling rate : 48.0 kHz
Frame rate : 46.875 FPS (1024 spf)
Compression mode : Lossy
Stream size : 134 MiB (9%)


Source : 1080p Untouched WebHD@MikeKhan@DDR

Ripper : Manojvb






























Share this topic on FacebookShare this topic on GoogleShare this topic on MySpaceShare this topic on TwitterShare this topic on Yahoo



Thanks given by:


Tags:
 

Related Topics

  Subject / Started by Replies Last post
0 Replies
589 Views
Last post June 03, 2016, 11:48:37 AM
by -Ð@Rk.ÐèVi£-
2 Replies
252 Views
Last post December 26, 2016, 11:35:11 PM
by proyer
0 Replies
129 Views
Last post December 28, 2016, 01:39:22 PM
by -Ð@Rk.ÐèVi£-
1 Replies
250 Views
Last post December 28, 2016, 09:52:01 PM
by proyer
1 Replies
165 Views
Last post February 18, 2017, 06:04:07 PM
by PSYCHO




Back to top