+ ShareSpark.net »  :::: Hollywood Zone » Hollywood Movies (Pre Releases)
|- Passengers (2016) 1CD x264 AAC 2.0 HDCAM (Deflickered) - DDR


Passengers (2016) 1CD x264 AAC 2.0 HDCAM (Deflickered) - DDR

0 Members and 1 Guest are viewing this topic.

December 28, 2016, 12:18:07 PM
  • *****************
  • Head Admin
  • Legend Member
  • *****
  • Topic Author
  • Thank You: 4566
  • Reputation: 2313
  • Activity:
    100%
  • Country: in
  • Posts: 15918
  • Topics: 9698
  • Join Date: Mar 2012
  • The Time Is Now......
Torrable - One stop for all your download & upload needs. It's smart, easy and free.




SPECS

Source: HDCAM @ Unknown (thanks)

Format : Matroska
File size : 696 MiB
Duration : 1 h 47 min
Overall bit rate mode : Variable
Overall bit rate : 905 kb/s

Video
Format : AVC
Format/Info : Advanced Video Codec
Format profile : [email protected]
Format settings, CABAC : Yes
Format settings, ReFrames : 16 frames
Codec ID : V_MPEG4/ISO/AVC
Duration : 1 h 47 min
Bit rate mode : Variable
Bit rate : 839 kb/s
Maximum bit rate : 62.5 Mb/s
Width : 720 pixels
Height : 308 pixels
Display aspect ratio : 2.35:1
Frame rate mode : Constant
Frame rate : 24.975 (25000/1001) FPS
Color space : YUV
Chroma subsampling : 4:2:0
Bit depth : 8 bits
Scan type : Progressive
Bits/(Pixel*Frame) : 0.151
Stream size : 645 MiB (93%)
Language : English
Default : Yes
Forced : No
olor range : Limited
Color primaries : BT.601 NTSC
Transfer characteristics : BT.601
Matrix coefficients : BT.601


Audio #1
Format : AAC
Format/Info : Advanced Audio Codec
Format profile : LC
Codec ID : A_AAC
Duration : 1 h 47 min
Bit rate : 64.0 kb/s
Channel(s) : 2 channels
Channel positions : Front: L R
Sampling rate : 48.0 kHz
Frame rate : 46.875 FPS (1024 spf)
Compression mode : Lossy
Delay relative to video : 9 ms
Stream size : 49.2 MiB (7%)
Language : English
Default : Yes
Forced : No

Chapters : NONE on source











































Share this topic on FacebookShare this topic on GoogleShare this topic on MySpaceShare this topic on TwitterShare this topic on Yahoo



Thanks given by:


Tags:
 

Related Topics

  Subject / Started by Replies Last post
0 Replies
353 Views
Last post December 28, 2016, 09:31:22 AM
by тнє ωαll 81317
0 Replies
426 Views
Last post December 28, 2016, 10:14:22 AM
by -Ð@Rk.ÐèVi£-
0 Replies
314 Views
Last post January 01, 2017, 05:19:53 AM
by wroser
0 Replies
638 Views
Last post January 29, 2017, 01:50:30 AM
by PSYCHO
1 Replies
640 Views
Last post January 29, 2017, 12:19:42 PM
by s¡lєит_αssαss¡и




Back to top