+ ShareSpark.net »  :::: Hollywood Zone » Hollywood Movies (Pre Releases)
|- Passengers (2016) x264 AAC 2.0 HDCAM (Deflickered) -DDR


Passengers (2016) x264 AAC 2.0 HDCAM (Deflickered) -DDR

0 Members and 1 Guest are viewing this topic.

December 28, 2016, 10:14:22 AM
  • *****************
  • Head Admin
  • Legend Member
  • *****
  • Topic Author
  • Thank You: 4354
  • Reputation: 2279
  • Activity:
    100%
  • Country: in
  • Posts: 15406
  • Topics: 9461
  • Join Date: Mar 2012
  • The Time Is Now......
Torrable - One stop for all your download & upload needs. It's smart, easy and free.




SPECS

Source: HDCAM @ Unknown (thanks)

Format : Matroska
File size : 1.37 GiB
Duration : 1 h 47 min
Overall bit rate : 1 817 kb/s

Video
Format : AVC
Format/Info : Advanced Video Codec
Format profile : [email protected]
Format settings, CABAC : Yes
Format settings, ReFrames : 16 frames
Codec ID : V_MPEG4/ISO/AVC
Duration : 1 h 47 min
Bit rate : 1 687 kb/s
Width : 720 pixels
Height : 308 pixels
Display aspect ratio : 2.35:1
Frame rate mode : Constant
Frame rate : 24.975 (25000/1001) FPS
Color space : YUV
Chroma subsampling : 4:2:0
Bit depth : 8 bits
Scan type : Progressive
Bits/(Pixel*Frame) : 0.305
Stream size : 1.27 GiB (93%)
Language : English
Default : Yes
Forced : No
Color range : Limited
Color primaries : BT.601 NTSC
Transfer characteristics : BT.470 System B, BT.470 System G
Matrix coefficients : BT.601


Audio #1
Format : AAC
Format/Info : Advanced Audio Codec
Format profile : LC
Codec ID : A_AAC
Duration : 1 h 47 min
Bit rate : 128 kb/s
Channel(s) : 2 channels
Channel positions : Front: L R
Sampling rate : 48.0 kHz
Frame rate : 46.875 FPS (1024 spf)
Compression mode : Lossy
Delay relative to video : 9 ms
Stream size : 98.5 MiB (7%)
Language : English
Default : Yes
Forced : No

Chapters : NONE on source






























Share this topic on FacebookShare this topic on GoogleShare this topic on MySpaceShare this topic on TwitterShare this topic on Yahoo




Tags:
 

Related Topics

  Subject / Started by Replies Last post
0 Replies
527 Views
Last post December 24, 2016, 06:42:47 AM
by wroser
0 Replies
152 Views
Last post December 28, 2016, 09:31:22 AM
by тнє ωαll 81317
0 Replies
433 Views
Last post December 28, 2016, 12:18:07 PM
by -Ð@Rk.ÐèVi£-
0 Replies
173 Views
Last post December 28, 2016, 02:52:44 PM
by PSYCHO
0 Replies
154 Views
Last post January 01, 2017, 05:19:53 AM
by wroser




Back to top