+ ShareSpark.net »  :::: Bollywood Zone » Regional Movies » Tamil Movies
|- Selvi (2016) Tamil - 700MB - 1CDRip - HDTVRip - x264-MP3-Team MTR


Selvi (2016) Tamil - 700MB - 1CDRip - HDTVRip - x264-MP3-Team MTR

0 Members and 1 Guest are viewing this topic.

December 27, 2016, 07:30:00 PM
  • Begginer
  • **
  • Topic Author
  • Thank You: 22
  • Reputation: -3
  • Activity:
    29.8%
  • Posts: 97
  • Topics: 99
  • Join Date: Jun 2012
  • ShareSpark Member
Torrable - One stop for all your download & upload needs. It's smart, easy and free.





Code: [Select]
General
Format                                   : Matroska
Format version                           : Version 4 / Version 2
File size                                : 740 MiB
Duration                                 : 2 h 16 min
Overall bit rate mode                    : Variable
Overall bit rate                         : 758 kb/s
Encoded date                             : UTC 2016-12-26 09:49:13
Writing application                      : mkvmerge v7.8.0 ('River Man') 64bit built on Mar 27 2015 16:31:37
Writing library                          : libebml v1.3.1 + libmatroska v1.4.2

Video
ID                                       : 1
Format                                   : AVC
Format/Info                              : Advanced Video Codec
Format profile                           : High@L3
Format settings, CABAC                   : Yes
Format settings, ReFrames                : 4 frames
Codec ID                                 : V_MPEG4/ISO/AVC
Duration                                 : 2 h 16 min
Bit rate                                 : 627 kb/s
Width                                    : 640 pixels
Height                                   : 256 pixels
Display aspect ratio                     : 2.500
Frame rate mode                          : Variable
Frame rate                               : 59.880 FPS
Color space                              : YUV
Chroma subsampling                       : 4:2:0
Bit depth                                : 8 bits
Scan type                                : Progressive
Bits/(Pixel*Frame)                       : 0.064
Stream size                              : 612 MiB (83%)
Writing library                          : x264 core 148 r2638 7599210
Encoding settings                        : cabac=1 / ref=3 / deblock=1:0:0 / analyse=0x3:0x113 / me=hex / subme=7 / psy=1 / psy_rd=1.00:0.00 / mixed_ref=1 / me_range=16 / chroma_me=1 / trellis=1 / 8x8dct=1 / cqm=0 / deadzone=21,11 / fast_pskip=1 / chroma_qp_offset=-2 / threads=8 / lookahead_threads=1 / sliced_threads=0 / nr=0 / decimate=1 / interlaced=0 / bluray_compat=0 / constrained_intra=0 / bframes=3 / b_pyramid=2 / b_adapt=1 / b_bias=0 / direct=1 / weightb=1 / open_gop=0 / weightp=2 / keyint=599 / keyint_min=59 / scenecut=40 / intra_refresh=0 / rc_lookahead=40 / rc=2pass / mbtree=1 / bitrate=627 / ratetol=1.0 / qcomp=0.60 / qpmin=0 / qpmax=69 / qpstep=4 / cplxblur=20.0 / qblur=0.5 / ip_ratio=1.40 / aq=1:1.00
Language                                 : English
Default                                  : Yes
Forced                                   : Yes

Audio
ID                                       : 2
Format                                   : MPEG Audio
Format version                           : Version 1
Format profile                           : Layer 3
Mode                                     : Joint stereo
Mode extension                           : MS Stereo
Codec ID                                 : A_MPEG/L3
Codec ID/Hint                            : MP3
Duration                                 : 2 h 16 min
Bit rate mode                            : Variable
Bit rate                                 : 128 kb/s
Channel(s)                               : 2 channels
Sampling rate                            : 44.1 kHz
Frame rate                               : 38.281 FPS (1152 spf)
Compression mode                         : Lossy
Stream size                              : 124 MiB (17%)
Writing library                          : LAME3.99r
Encoding settings                        : -m j -V 4 -q 3 -lowpass 17 --abr 128
Language                                 : Tamil
Default                                  : Yes
Forced                                   : Yes











SINGLE DIRECT FAST LINKS



Code: [Select]
http://www.heroupload.com/174b18507e34c7e9/Selvi.2016.Tamil.Scr.Audio.X264.HDTV.700MB-MTR.mkv

Share this topic on FacebookShare this topic on GoogleShare this topic on MySpaceShare this topic on TwitterShare this topic on Yahoo




Tags:
 

Related Topics

  Subject / Started by Replies Last post
2 Replies
504 Views
Last post October 28, 2014, 07:55:16 PM
by podikassa
1 Replies
412 Views
Last post October 28, 2014, 09:16:53 PM
by chaandwassi
0 Replies
324 Views
Last post August 28, 2015, 08:28:53 PM
by Abhik
0 Replies
184 Views
Last post December 27, 2016, 07:21:56 PM
by wroser
0 Replies
160 Views
Last post December 31, 2016, 07:37:19 PM
by wroser




Back to top