+ ShareSpark.net »  :::: Bollywood Zone » Regional Movies » Marathi Movies
|- Ticha Umbartha (2016) 720p WebHD x264 ESub -DDR-Exclusive


Ticha Umbartha (2016) 720p WebHD x264 ESub -DDR-Exclusive

0 Members and 1 Guest are viewing this topic.

December 26, 2016, 11:21:46 AM
  • *****************
  • Head Admin
  • Legend Member
  • *****
  • Topic Author
  • Thank You: 4723
  • Reputation: 2346
  • Activity:
    100%
  • Country: in
  • Posts: 16250
  • Topics: 9833
  • Join Date: Mar 2012
  • The Time Is Now......
Torrable - One stop for all your download & upload needs. It's smart, easy and free.






SPECS

Source: WEB @ DDR

Format : Matroska
File size : 1.48 GiB
Duration : 1 h 57 min
Overall bit rate : 1 804 kb/s

Video
ID : 1
Format : AVC
Format/Info : Advanced Video Codec
Format profile : [email protected]
Format settings, CABAC : Yes
Format settings, ReFrames : 1 frame
Format settings, GOP : M=1, N=25
Codec ID : V_MPEG4/ISO/AVC
Duration : 1 h 57 min
Bit rate mode : Constant
Bit rate : 1 802 kb/s
Nominal bit rate : 2 000 kb/s
Width : 1 280 pixels
Height : 720 pixels
Display aspect ratio : 16:9
Frame rate mode : Constant
Frame rate : 25.000 FPS
Color space : YUV
Chroma subsampling : 4:2:0
Bit depth : 8 bits
Scan type : Progressive
Bits/(Pixel*Frame) : 0.078
Stream size : 1.48 GiB (100%)
Language : English
Default : Yes
Forced : No

Text
ID : 2
Format : UTF-8
Codec ID : S_TEXT/UTF8
Codec ID/Info : UTF-8 Plain Text
Duration : 1 h 56 min
Bit rate : 59 b/s
Count of elements : 1648
Stream size : 50.5 KiB (0%)
Language : English
Default : Yes
Forced : No





















Share this topic on FacebookShare this topic on GoogleShare this topic on MySpaceShare this topic on TwitterShare this topic on Yahoo



Thanks given by:


December 26, 2016, 02:52:32 PM
Reply #1
  • Team SSX
  • Legend Member
  • ***
  • Thank You: 1286
  • Reputation: 172
  • Activity:
    100%
  • Country: in
  • Posts: 2457
  • Topics: 1786
  • Join Date: Sep 2016
  • (: EnJOy D LiFe :)

December 26, 2016, 11:35:11 PM
Reply #2
  • Semi Newbie
  • **
  • Thank You: 0
  • Reputation: 1
  • Activity:
    3.4%
  • Country: in
  • Posts: 45
  • Topics: 0
  • Join Date: Nov 2016
  • ShareSpark Member

Tags:
 

Related Topics

  Subject / Started by Replies Last post
0 Replies
511 Views
Last post May 25, 2016, 12:49:20 PM
by -Ð@Rk.ÐèVi£-
0 Replies
660 Views
Last post June 11, 2016, 07:30:15 AM
by -Ð@Rk.ÐèVi£-
0 Replies
255 Views
Last post December 28, 2016, 01:39:22 PM
by -Ð@Rk.ÐèVi£-
0 Replies
264 Views
Last post December 28, 2016, 04:19:41 PM
by -Ð@Rk.ÐèVi£-
1 Replies
393 Views
Last post December 28, 2016, 09:52:01 PM
by proyer




Back to top