+ ShareSpark.net »  :::: Bollywood Zone » Regional Movies » Punjabi Movies
|- Chaar Sahibzaade 2 Rise of Banda Singh Bahadur (2016) [Hindi] WEB-DL Untouched Msub Hon3yHD


Chaar Sahibzaade 2 Rise of Banda Singh Bahadur (2016) [Hindi] WEB-DL Untouched Msub Hon3yHD

0 Members and 1 Guest are viewing this topic.

December 26, 2016, 08:39:10 AM
  • *****************
  • Head Admin
  • Legend Member
  • *****
  • Topic Author
  • Thank You: 4651
  • Reputation: 2327
  • Activity:
    100%
  • Country: in
  • Posts: 16098
  • Topics: 9762
  • Join Date: Mar 2012
  • The Time Is Now......
Torrable - One stop for all your download & upload needs. It's smart, easy and free.


Format                                   : Matroska
File size                                : 1.21 GiB
Duration                                 : 2h 14mn
Overall bit rate                         : 1 288 Kbps

Video
ID                                       : 1
Format                                   : AVC
Format/Info                              : Advanced Video Codec
Format profile                           : [email protected]
Format settings, CABAC                   : Yes
Format settings, ReFrames                : 4 frames
Format settings, GOP                     : M=4, N=30
Codec ID                                 : V_MPEG4/ISO/AVC
Duration                                 : 2h 14mn
Bit rate                                 : 1 228 Kbps
Width                                    : 640 pixels
Height                                   : 360 pixels
Display aspect ratio                     : 16:9
Frame rate mode                          : Constant
Frame rate                               : 24.000 fps
Stream size                              : 1.16 GiB (96%)

Audio
ID                                       : 2
Format                                   : AAC
Format/Info                              : Advanced Audio Codec
Format profile                           : LC
Codec ID                                 : A_AAC
Duration                                 : 2h 14mn
Bit rate                                 : 48.0 Kbps
Channel(s)                               : 2 channels
Channel positions                        : Front: L R
Sampling rate                            : 48.0 KHz
Frame rate                               : 46.875 fps (1024 spf)
Stream size                              : 44.6 MiB (4%)


























Share this topic on FacebookShare this topic on GoogleShare this topic on MySpaceShare this topic on TwitterShare this topic on Yahoo




Tags:
 

Related Topics





Back to top