+ ShareSpark.net »  :::: Bollywood Zone » Bollywood Movies (Original Rips) » High Resolution Movies
|- Black Friday (2004) 720p NFrip x264 MSubs - DDR


Black Friday (2004) 720p NFrip x264 MSubs - DDR

0 Members and 1 Guest are viewing this topic.

December 25, 2016, 12:38:27 PM
  • *****************
  • Head Admin
  • Legend Member
  • *****
  • Topic Author
  • Thank You: 4416
  • Reputation: 2296
  • Activity:
    100%
  • Country: in
  • Posts: 15670
  • Topics: 9591
  • Join Date: Mar 2012
  • The Time Is Now......
Torrable - One stop for all your download & upload needs. It's smart, easy and free.




SPECS

Source: Netflix @ DDR

Format : Matroska
File size : 3.50 GiB
Duration : 2 h 41 min
Overall bit rate : 3 111 kb/s

Format : AVC
Format/Info : Advanced Video Codec
Format profile : [email protected]
Format settings, CABAC : Yes
Format settings, ReFrames : 5 frames
Codec ID : V_MPEG4/ISO/AVC
Duration : 2 h 35 min
Bit rate : 3 000 kb/s
Width : 1 280 pixels
Height : 652 pixels
Display aspect ratio : 1.963
Frame rate mode : Constant
Frame rate : 24.000 FPS
Color space : YUV
Chroma subsampling : 4:2:0
Bit depth : 8 bits
Scan type : Progressive
Bits/(Pixel*Frame) : 0.150
Stream size : 3.26 GiB (93%)
Default : Yes
Forced : No
Color range : Limited
Color primaries : BT.709
Transfer characteristics : BT.709
Matrix coefficients : BT.709

Audio
Format : AAC
Format/Info : Advanced Audio Codec
Format profile : LC
Codec ID : A_AAC
Duration : 2 h 35 min
Bit rate : 221 kb/s
Channel(s) : 2 channels
Channel positions : Front: L R
Sampling rate : 48.0 kHz
Frame rate : 46.875 FPS (1024 spf)
Compression mode : Lossy
Stream size : 246 MiB (7%)
Language : Hindi
Default : Yes
Forced : No


























Share this topic on FacebookShare this topic on GoogleShare this topic on MySpaceShare this topic on TwitterShare this topic on Yahoo



Thanks given by:


January 01, 2017, 06:44:33 PM
Reply #1
  • Senior Member
  • ***
  • Thank You: 39
  • Reputation: 3
  • Activity:
    41.6%
  • Country: in
  • Posts: 207
  • Topics: 83
  • Join Date: Dec 2016
  • ShareSpark Member

Tags:
 

Related Topics

  Subject / Started by Replies Last post
1 Replies
557 Views
Last post October 09, 2015, 10:00:24 AM
by yogesh.sagpariya.5
1 Replies
458 Views
Last post October 14, 2015, 05:11:13 PM
by ıllıllı αнʍє иυя ıllıllı
0 Replies
410 Views
Last post December 14, 2015, 12:44:13 PM
by -Ð@Rk.ÐèVi£-
0 Replies
276 Views
Last post December 25, 2016, 05:32:31 AM
by PSYCHO
0 Replies
198 Views
Last post December 25, 2016, 06:49:42 AM
by PSYCHO




Back to top