+ ShareSpark.net »  :::: Bollywood Zone » Regional Movies » Bengali Movies
|- Benche.Thakar.Gaan.(2016)-1080p-WebHD.Rip-x264.AAC.Subs-5GB-[DDR]


Benche.Thakar.Gaan.(2016)-1080p-WebHD.Rip-x264.AAC.Subs-5GB-[DDR]

0 Members and 1 Guest are viewing this topic.

December 24, 2016, 09:57:31 PM
  • Team SSX
  • Devoted Member
  • ***
  • Topic Author
  • Thank You: 91
  • Reputation: 23
  • Activity:
    15.8%
  • Country: in
  • Posts: 192
  • Topics: 155
  • Join Date: Oct 2016
  • Born To Live
:title:

Benche.Thakar.Gaan.(2016)-1080p-WebHD.Rip-x264.AAC.Subs-5GB-[DDR]/b]




:info:

General
Format: Matroska
Format version: Version 4 / Version 2
File size: 5.00 GiB
Duration: 2 h 03 min
Overall bit rate mode: Variable
Overall bit rate: 5821 kb/s

Video
Format Profile: [email protected]
Codec ID: V_MPEG4/ISO/AVC
Duration: 2 h 03 min
Bit rate mode: Variable
Bit rate: 5690 kb/s
Maximum bit rate: 62.5 Mb/s
Width: 1 920 pixels
Height: 816 pixels
Display aspect ratio: 2.35:1
Frame rate mode: Constant
Frame rate: 23.976 FPS
Color space: YUV
Chroma subsampling: 4:2:0
Bit depth: 8 bits
Scan type: Progressive
Bits/(Pixel*Frame): 0.151
Stream size: 4.89 GiB (91%)
Writing library: x264 core 148 r2721 72d53ab
Color Primaries: BT.709

Audio
Language: Bengali
Format: AAC
Duration: 2 h 03 min
Bit rate: 128 kb/s
Channel(s): 2 channels
Channel positions: Front: Front: L R
Sampling rate: 48.0 kHz / 24 kHz
Frame rate: 23.438 FPS (1024 spf)
Compression mode: Lossy
Delay relative to video: 31 ms
Stream size: 415 MiB (6%)
Default: Yes
Forced : No

Chapters & Subtitles
Chapters: None
Subtitles: Hardcoded

Starring
Gargee Roychowdhury; Tota Roychowdhury, Paran Bandyopadhyay, Dwijen Banerjee, Ardhendu Banerjee, Pradip Mukherjee, Alokananda Roy, Anamika Saha, Sohag Sen, Indrani Bhattacharya,

Technical Team
Director: Abhijit Guha & Sudeshna Roy; Producer: Pradip Churiwal; Music: Raja Narayan Deb; DOP: Pravatendu Mondal; Editor: Dujoy Datta Ray: Sound: Tito;

Ripped By: Udbuddho



Synopsis:
Benche Thakar Gaan is set in an old age home where Paromita, a young gerontologist lands up leaving a lucrative career as a psychiatrist in the city. In this home she faces her boss Dr Partho Sinha, a strict disciplinarian, who has built this home for all those who can afford to live well but are not able to live either with their families or alone due to certain circumstances. According to dr Sinha, the inmates are here to spend the sunset years of their lives in peacebut Paromita feels otherwise, she believes there is still a lot to live for in the sunset years too. To Paromita, even the seniors have a right to enjoy, and peace can only come when the mind is happy ...... An old age home is not where you are thrown out, but it can be a home where new bonds can be forged even in later years of life. Benche Thakar Gaan or song of life is a positive look at age which to us is just a number, and its all in the mind.


Uploader's Notes:

A full HD Web rip. The color has been adjusted just a bit to reduce a yellw tint. The image is sharper with details being enhanced and background details being brought into sharper focus. Please check the sample.

Enjoy!



:ss:






:sample:




:download:

Share this topic on FacebookShare this topic on GoogleShare this topic on MySpaceShare this topic on TwitterShare this topic on Yahoo



Born To Live. So always Positive

Thanks given by:


Tags:
 

Related Topics

  Subject / Started by Replies Last post
1 Replies
481 Views
Last post December 07, 2014, 12:36:47 AM
by Habibur Rahman Mahi
0 Replies
287 Views
Last post December 12, 2016, 08:14:44 PM
by iwnna_agha
1 Replies
479 Views
Last post December 24, 2016, 01:18:04 PM
by Abhisona
1 Replies
443 Views
Last post December 24, 2016, 01:16:20 PM
by Abhisona
0 Replies
542 Views
Last post December 24, 2016, 01:01:39 PM
by тнє ωαll 81317




Back to top