+ ShareSpark.net »  :::: Hollywood Zone » Hollywood Movies (Original Rips) » Animation Movies
|- Epic (2013) (1080p Bluray x265 HEVC 10bit AAC 7.1 Tigole) [UTR]


Flipkart Offer

Epic (2013) (1080p Bluray x265 HEVC 10bit AAC 7.1 Tigole) [UTR]

0 Members and 1 Guest are viewing this topic.

December 18, 2016, 09:01:07 AM
  • ♫♫♣ B૦ՐՈ T૦ H૯Նƿ ♣♫♫
  • Junior Moderator
  • Legend Member
  • ***
  • Topic Author
  • Thank You: 783
  • Reputation: 659
  • Activity:
    5.4%
  • Country: in
  • Posts: 2313
  • Topics: 901
  • Join Date: Jan 2013
  • ♠§§ Dσп'т Tαʟκ Jυƨт Acт §§ Dσп'т Sαч Jυƨт Sнσш §§♠
Flipkart Offer
:title:
Epic (2013) (1080p Bluray x265 HEVC 10bit AAC 7.1 Tigole) [UTR]



:info:
General
Format : Matroska
Format version : Version 4 / Version 2
File size : 2.10 GiB
Duration : 1 h 42 min
Overall bit rate : 2 939 kb/s
Movie name : Epic
Encoded date : UTC 2016-12-03 11:01:04
Writing application : mkvmerge v9.4.0 (\'Knurl\') 64bit
Writing library : libebml v1.3.4 + libmatroska v1.4.5

Video
ID : 1
Format : HEVC
Format/Info : High Efficiency Video Coding
Format profile : Main [email protected]@Main
Codec ID : V_MPEGH/ISO/HEVC
Duration : 1 h 42 min
Bit rate : 2 507 kb/s
Width : 1 920 pixels
Height : 800 pixels
Display aspect ratio : 2.40:1
Frame rate mode : Constant
Frame rate : 23.976 (24000/1001) FPS
Color space : YUV
Chroma subsampling : 4:2:0
Bit depth : 10 bits
Bits/(Pixel*Frame) : 0.068
Stream size : 1.79 GiB (85%)
Default : Yes
Forced : No

Audio
ID : 2
Format : AAC
Format/Info : Advanced Audio Codec
Format profile : LC
Codec ID : A_AAC
Duration : 1 h 42 min
Bit rate : 409 kb/s
Channel(s) : 8 channels
Channel positions : Front: L C R, Side: 4, LFE
Sampling rate : 48.0 kHz
Frame rate : 46.875 FPS (1024 spf)
Compression mode : Lossy
Delay relative to video : 20 ms
Stream size : 300 MiB (14%)
Language : English
Default : Yes
Forced : No

Text #1

ID : 3
Format : VobSub
Muxing mode : zlib
Codec ID : S_VOBSUB
Codec ID/Info : Picture based subtitle format used on DVDs
Duration : 1 h 33 min
Bit rate : 5 744 b/s
Count of elements : 1260
Stream size : 3.82 MiB (0%)
Language : English
Default : No
Forced : No



:ss:












:download:





Share this topic on FacebookShare this topic on GoogleShare this topic on MySpaceShare this topic on TwitterShare this topic on Yahoo




Tags:
 

Related Topics





Back to top