+ ShareSpark.net »  :::: Bollywood Zone » Regional Movies » Bengali Movies
|- Ora Tinjon DVDRip - 720p - x264 - AC3 5.1channel [KARANJAI1111]


Ora Tinjon DVDRip - 720p - x264 - AC3 5.1channel [KARANJAI1111]

0 Members and 1 Guest are viewing this topic.

December 13, 2016, 12:03:56 PM
  • Team SSX
  • Devoted Member
  • ***
  • Topic Author
  • Thank You: 49
  • Reputation: 11
  • Activity:
    24.8%
  • Country: in
  • Posts: 120
  • Topics: 108
  • Join Date: Oct 2016
  • Born To Live
Torrable - One stop for all your download & upload needs. It's smart, easy and free.
:title:

Ora Tinjon DVDRip - 720p - x264 - AC3 5.1channel [KARANJAI1111]]/b]




:info:

Format                      : Matroska
Format version              : Version 2
File size                   : 2.00 GiB
Duration                    : 1h 33mn
Overall bit rate            : 3 055 Kbps


Video
ID                          : 1
Format                      : AVC
Format/Info                 : Advanced Video Codec
Format profile              : High@L3.2
Format settings, CABAC      : Yes
Format settings, ReFrames   : 3 frames
Codec ID                    : V_MPEG4/ISO/AVC
Duration                    : 1h 33mn
Bit rate                    : 2 668 Kbps
Width                       : 1 280 pixels
Height                      : 714 pixels
Display aspect ratio        : 16:9
Frame rate mode             : Constant
Frame rate                  : 29.970 fps
Color space                 : YUV
Chroma subsampling          : 4:2:0
Bit depth                   : 8 bits
Scan type                   : Progressive
Bits/(Pixel*Frame)          : 0.097
Stream size                 : 1.71 GiB (85%)
Writing library             : x264 core 146 r2538 121396c
Default                     : Yes
Forced                      : No
Color range                 : Limited
Color primaries             : Generic film

Audio
ID                          : 2
Format                      : AC-3
Format/Info                 : Audio Coding 3
Mode extension              : CM (complete main)
Format settings, Endianness : Big
Codec ID                    : A_AC3
Duration                    : 1h 33mn
Bit rate mode               : Constant
Bit rate                    : 384 Kbps
Channel(s)                  : 6 channels
Channel positions           : Front: L C R, Side: L R, LFE
Sampling rate               : 48.0 KHz
Compression mode            : Lossy
Stream size                 : 257 MiB (13%)
Default                     : Yes
Forced                      : No
Language                  : Bengali



:ss:





:download:




Share this topic on FacebookShare this topic on GoogleShare this topic on MySpaceShare this topic on TwitterShare this topic on Yahoo



Born To Live. So always Positive

Tags:
 

Related Topics

  Subject / Started by Replies Last post
2 Replies
888 Views
Last post September 23, 2013, 09:10:49 PM
by sree15081947
0 Replies
360 Views
Last post August 30, 2015, 10:39:14 PM
by -Ð@Rk.ÐèVi£-
0 Replies
446 Views
Last post October 30, 2015, 09:44:40 PM
by -Ð@Rk.ÐèVi£-
0 Replies
366 Views
Last post December 24, 2015, 07:36:50 AM
by -Ð@Rk.ÐèVi£-
0 Replies
377 Views
Last post December 24, 2015, 07:39:01 AM
by -Ð@Rk.ÐèVi£-




Back to top