+ ShareSpark.net »  :::: Bollywood Zone » Indian TV Shows
|- Bigg.Boss.[Season.10].(.Episode.55).9th.December.2016.720p.HDTV


Bigg.Boss.[Season.10].(.Episode.55).9th.December.2016.720p.HDTV

0 Members and 1 Guest are viewing this topic.

December 10, 2016, 12:58:09 AM
  • Devoted Member
  • **
  • Topic Author
  • Thank You: 94
  • Reputation: 14
  • Activity:
    30.2%
  • Country: us
  • Posts: 125
  • Topics: 125
  • Join Date: Nov 2016
  • ShareSpark Member
Torrable - One stop for all your download & upload needs. It's smart, easy and free.
:title:


Bigg.Boss.[Season.10].(.Episode.55).9th.December.2016.720p.HDTV





:info:



Format                      : MPEG-4
File size                   : 790 MiB
Duration                    : 42 min
Overall bit rate            : 2 579 kb/s

Video
ID                          : 1
Format                      : AVC
Format/Info                 : Advanced Video Codec
Format profile              : [email protected]
Format settings, CABAC      : No
Format settings, ReFrames   : 2 frames
Format settings, GOP        : M=1, N=24
Codec ID                    : avc1
Codec ID/Info               : Advanced Video Coding
Duration                    : 42 min
Bit rate mode               : Variable
Bit rate                    : 2 448 kb/s
Maximum bit rate            : 3 600 kb/s
Width                       : 1 280 pixels
Height                      : 720 pixels
Display aspect ratio        : 16:9
Frame rate mode             : Constant
Frame rate                  : 25.000 FPS
Stream size                 : 750 MiB (95%)

Audio
ID                          : 2
Format                      : AAC
Format/Info                 : Advanced Audio Codec
Format profile              : LC
Codec ID                    : 40
Duration                    : 42 min
Bit rate mode               : Variable
Bit rate                    : 128 kb/s
Channel(s)                  : 2 channels
Channel positions           : Front: L R
Sampling rate               : 48.0 kHz
Frame rate                  : 46.875 FPS (1024 spf)
Stream size                 : 39.2 MiB (5%



:ss:






:download:


Watch Online








Single link















Share this topic on FacebookShare this topic on GoogleShare this topic on MySpaceShare this topic on TwitterShare this topic on Yahoo




Tags:
 

Related Topics

  Subject / Started by Replies Last post
0 Replies
404 Views
Last post December 03, 2016, 01:08:25 AM
by shahana
0 Replies
215 Views
Last post December 06, 2016, 09:47:24 AM
by shahana
0 Replies
222 Views
Last post December 07, 2016, 08:55:41 AM
by shahana
0 Replies
286 Views
Last post December 11, 2016, 12:10:39 AM
by shahana
0 Replies
311 Views
Last post December 13, 2016, 02:57:54 AM
by Serecomputing




Back to top