+ ShareSpark.net »  :::: Hollywood Zone » TV Shows
|- Gotham.S03E11.HDTV.x264-LOL[ettv]


Gotham.S03E11.HDTV.x264-LOL[ettv]

0 Members and 1 Guest are viewing this topic.

November 29, 2016, 08:53:12 AM
  • *****************
  • Head Admin
  • Legend Member
  • *****
  • Topic Author
  • Thank You: 4423
  • Reputation: 2297
  • Activity:
    100%
  • Country: in
  • Posts: 15682
  • Topics: 9595
  • Join Date: Mar 2012
  • The Time Is Now......
Torrable - One stop for all your download & upload needs. It's smart, easy and free.
Gotham.S03E11.HDTV.x264-LOL


[Format]: Matroska
[Duration]: 44mn 8s
[Resolution]: 720 x 404 pixels
[Display aspect ratio]: 16:9
[Frame rate mode]: Constant
[Frame rate]: 23.976 fps
















Share this topic on FacebookShare this topic on GoogleShare this topic on MySpaceShare this topic on TwitterShare this topic on Yahoo




November 29, 2016, 08:54:10 AM
Reply #1
  • *****************
  • Head Admin
  • Legend Member
  • *****
  • Topic Author
  • Thank You: 4423
  • Reputation: 2297
  • Activity:
    100%
  • Country: in
  • Posts: 15682
  • Topics: 9595
  • Join Date: Mar 2012
  • The Time Is Now......
Gotham.S03E11.720p.HDTV.X264-DIMENSION


[Format]: Matroska
[Duration]: 44mn 8s
[Resolution]: 1 280 x 720 pixels
[Display aspect ratio]: 16:9
[Frame rate mode]: Constant
[Frame rate]: 23.976 fps












November 29, 2016, 08:54:53 AM
Reply #2
  • *****************
  • Head Admin
  • Legend Member
  • *****
  • Topic Author
  • Thank You: 4423
  • Reputation: 2297
  • Activity:
    100%
  • Country: in
  • Posts: 15682
  • Topics: 9595
  • Join Date: Mar 2012
  • The Time Is Now......
Gotham.S03E11.1080p.HDTV.X264-DIMENSION


[Format]: Matroska
[Duration]: 44mn 8s
[Resolution]: 1 920 x 1 080 pixels
[Display aspect ratio]: 16:9
[Frame rate mode]: Constant
[Frame rate]: 23.976 fps

















November 29, 2016, 08:55:57 AM
Reply #3
  • *****************
  • Head Admin
  • Legend Member
  • *****
  • Topic Author
  • Thank You: 4423
  • Reputation: 2297
  • Activity:
    100%
  • Country: in
  • Posts: 15682
  • Topics: 9595
  • Join Date: Mar 2012
  • The Time Is Now......
Gotham S03E11 HDTV x265-TheRival

Video
ID : 1
Format : HEVC
Format/Info : High Efficiency Video Coding
Format profile : [email protected]@Main
Codec ID : hev1
Codec ID/Info : High Efficiency Video Coding
Duration : 44 min 8 s
Width : 720 pixels
Height : 404 pixels
Display aspect ratio : 16:9
Frame rate mode : Constant
Frame rate : 23.976 (24000/1001) FPS
Color space : YUV
Chroma subsampling : 4:2:0
Bit depth : 8 bits
Scan type : Progressive
Bits/(Pixel*Frame) : 0.026
Stream size : 57.7 MiB (58%)
Writing library : x265 1.6:[Windows][GCC 4.6.2][32 bit]
Encoding settings : wpp / ctu=32 / min-cu-size=16 / max-tu-size=32 / tu-intra-depth=1 / tu-inter-depth=1 / me=0 / subme=0 / merange=57 / no-rect / no-amp / max-merge=2 / temporal-mvp / early-skip / rdpenalty=0 / no-tskip / no-tskip-fast / strong-intra-smoothing / no-lossless / no-cu-lossless / no-constrained-intra / fast-intra / open-gop / no-temporal-layers / interlace=0 / keyint=250 / min-keyint=23 / scenecut=0 / rc-lookahead=5 / lookahead-slices=0 / bframes=3 / bframe-bias=0 / b-adapt=0 / ref=1 / no-weightp / no-weightb / aq-mode=0 / aq-strength=0.00 / cbqpoffs=0 / crqpoffs=0 / rd=2 / psy-rd=0.30 / rdoq-level=0 / psy-rdoq=0.00 / no-signhide / deblock / no-sao / no-sao-non-deblock / b-pyramid / no-cutree / rc=crf / crf=28.0 / qcomp=0.60 / qpmin=0 / qpmax=51 / qpstep=4 / ipratio=1.40 / pbratio=1.30
Language : English

Audio
ID : 2
Format : AAC
Format/Info : Advanced Audio Codec
Format profile : LC
Codec ID : 40
Duration : 44 min 8 s
Bit rate mode : Constant
Bit rate : 128 kb/s
Channel(s) : 2 channels
Channel positions : Front: L R
Sampling rate : 48.0 kHz
Frame rate : 46.875 FPS (1024 spf)
Compression mode : Lossy
Stream size : 40.5 MiB (40%)
Default : Yes
Alternate group : 1


















Tags:
 

Related Topics

  Subject / Started by Replies Last post
3 Replies
173 Views
Last post September 27, 2016, 08:37:35 AM
by -Ð@Rk.ÐèVi£-
3 Replies
172 Views
Last post October 25, 2016, 11:43:13 AM
by -Ð@Rk.ÐèVi£-
4 Replies
99 Views
Last post November 14, 2016, 01:51:14 PM
by -Ð@Rk.ÐèVi£-
4 Replies
241 Views
Last post November 22, 2016, 10:57:38 AM
by -Ð@Rk.ÐèVi£-
2 Replies
114 Views
Last post February 01, 2017, 08:26:01 AM
by -Ð@Rk.ÐèVi£-




Back to top